S.W.A.T. S04E04 Roald Dahls The Witches 2020 The New Mutants 2020 Station 19 FBI S03E02 The Croods A New Age 2020 Mulan 2020 Greys Anatomy star trek discovery s03e07 tamil  Happiest Season 2020 young sheldon Superintelligence 2020 his dark materials The Masked Singer S04E09 evo Fatman 2020 wwe scam 1992 ncis rq.mp4 2160p ddr The Flight Attendant s01e03 jallikattu The Undoing S01E05 The Mandalorian S02E01 The Amazing Race s32e09 hindi 2020 etrg The Mandalorian S02E03 for life  etmovies The Flight Attendant s01e02 yts neXt S01E05 For Life S02E02 Let Him Go 2020 The Christmas Chronicles Part Two 2020 mandalorian A Charlie Brown Thanksgiving 1973 Honest Thief 2020 the mandalorian s02e05 The Mandalorian  The Mandalorian s02e02 the flight attendant the walking dead The Curse of Oak Island S08E03 Tenet 2020 hindi tenet The Flight Attendant S01E01 NCIS S18E02 National Lampoons Christmas Vacation 1989 mandalorian s02e05 Jiu Jitsu 2020 xxx NeXt Unhinged 2020 The Mandalorian S02E04 Run 2020 ettv Big Sky S01E02 ludo Star Trek Discovery Greenland 2020 Home Alone 1990 ethd SUPERNATURAL Jingle Jangle A Christmas Journey 2020 Freaky 2020 0 blackish 
Warning! Use a VPN When Downloading Torrents!
Your IP Address is 34.237.138.69. Location United States
Your Internet Provider can see when you download torrents! Hide your IP Address with a VPN
ETTV warns: You should use VPN to hide your torrenting. HIDE ME NOW
ETTV Recommended TV Shows
The.Conners.S03E05.720p.HDTV.x264-SYNCOPY torrent
The.Goldbergs.2013.S08E06.720p.HDTV.x264-SYNCOPY torrent
Titan FC 65 720p WEB-DL H264 Fight-BB torrent
The.Walking.Dead.World.Beyond.S01E10.1080p.WEB.H264-CAKES torrent
Nat.Geo.Sea.of.Shadows.1080p.x265.AAC.MVGroup.org.mkv torrent
Miz & Mrs S02E11 Miz-ter Mom HDTV x264-NWCHD [TJET] torrent
The.Masked.Singer.S04E09.720p.WEB.h264-KOGi torrent
The.Mandalorian.S02E05.1080p.WEB.H264-GGWP torrent
Hells.Kitchen.US.S19E11.WEBRip.x264-ION10 torrent
NJPW 2020 11 25 Best Of The Super Jr.27 Day 5 ENGLISH 720p WEB h264-LATE [TJET] torrent

ETTV Recommended SD
Life.in.a.Year.2020.HDRip.XviD.AC3-EVO torrent
Faith.2020.HDRip.XviD.AC3-EVO torrent
Black.Beauty.2020.HDRip.XviD.AC3-EVO torrent
A.Christmas.Break.2020.HDRip.XviD.AC3-EVO torrent

ETTV Recommended HD
Come Away (2020) 720p HDRip [Hindi-Sub] x264 torrent
The.Irishman.2019.1080p.BluRay.H264.AAC-RARBG torrent
Dead Man Down (2013) [Colin Farrell] 1080p H264 DolbyD 5.1 ūüíé nickarad torrent
Snow Dog  (Western 1950)  Kirby Grant  720p torrent

ETTV Recommended UHD
Beverly.Hills.Cop.1984.MULTi.2160p.UHD.Bluray.DTS-HDMA.5.1.HEVC-DDR.mkv torrent
Fearless.2020.2160p.HDR.WEB.DDP.5.1.HEVC-DDR.mkv torrent
Groundhog.Day.1993.MULTi.2160p.UHD.Blu-ray.HEVC.Atmos.TrueHD.7.1-DDR.mkv torrent
Let.Him.Go.2020.2160p.HDR.WEB.DDP.5.1.HEVC-DDR.mkv torrent
The.Great.Gatsby.2013.UHD.2160p.HDR.BluRay.DTS-HDMA.5.1.HEVC-DDR.mkv torrent
King.of.New.York.1990.2160p.HDR.Blu-ray.DTS-HD.MA.5.1.HEVC-DDR.mkv torrent

ETTV Recommended Cam
The Comeback Trail 2020 720p HDCAM-C1NEM4 torrent
Let Him Go (2020) 720p HDCAM [Hindi-Sub] x264 1XBET torrent

ETTV Recommended Foreign
Battle Scars (2020) 720p WEBRip x264 Eng Subs [Dual Audio] [Hindi DD 2.0 - English 2.0] Exclusive By -=!Dr.STAR!=- torrent
Train to Busan (2016) HDRip 720p Org [Hindi Dub + English] x264 Mp3 ESub By Full4Movies torrent
The.Call.2020.1080p.NF.WEB-DL.HIN-ENG.DDP5.1.x264-Telly torrent
Diego Maradona (2019) BluRay 1080p.H264 Ita/Spa AC3 5.1 Sub Ita ODS torrent
Killing Gunther (2017) [1080p] [MP4] [crestiec] torrent
Anna.2019.SHORT.1080p.WEB-DL.x264.AAC.HORiZON-ArtSubs torrent

ETTV Recommended Music
The Official UK Top 40 Singles Chart (20.11.2020) Mp3 (320kbps) [Hunter] torrent
Dope Boys~Trap Gods (feat.2 Chainz~Rick Ross) Single (ETTV)~320~kbps Beats‚≠ź torrent
Granger Smith - Country Things, Vol. 2 (2020) Mp3 320kbps [PMEDIA] ‚≠źÔłŹ torrent
Jimi Hendrix Experience: Live In Maui (2020) [BDRemux 1080p x 264 by alE13 DTS/AC3/PCM][Multi Sub][Eng] torrent
Dream Theater - Distant Memories - Live in London (Bonus Track Edition) (3CD) (2020) [FLAC] [DJ] torrent
[indie-rock] (2020) Sad13 - Haunted Painting [FLAC] [DarkAngie] torrent


Download Torrent "Predestination (2014) 720p [Hindi Dubbed - Eng] HDRip x264 AAC ESub By Full..."

IMDB Details
Description:

For his final assignment, a top temporal agent must pursue the one criminal that has eluded him throughout time. The chase turns into a unique, surprising and mind-bending exploration of love, fate, identity and time travel taboos.

Genre:

Action, Drama, Sci-Fi, Thriller

Download Torrent (Magnet)
Download Torrent (File)

Seeds: 55
Leechers: 17

Uploaded by:
full4movies


Category:
Movies > Dubs/Dual Audio


Details
Title:Predestination (2014) 720p [Hindi Dubbed - Eng] HDRip x264 AAC ESub By Full...
Description:


Visit Us = https://full4movies.xyz/

General
Complete name                  : Predestination (2014) 720p [Hindi Dubbed - Eng] HDRip x264 AAC ESub By Full4Movies.mkv
Format                         : Matroska
Format version                 : Version 4
File size                      : 846 MiB
Duration                       : 1 h 37 min
Overall bit rate               : 1 209 kb/s
Encoded date                   : UTC 2020-11-21 06:47:21
Writing application            : mkvmerge v8.0.0 ('Til The Day That I Die') 32bit
Writing library                : libebml v1.3.1 + libmatroska v1.4.2

Video
ID                             : 1
Format                         : AVC
Format/Info                    : Advanced Video Codec
Format profile¬† ¬† ¬† ¬† ¬† ¬† ¬† ¬† ¬†: [email protected]
Format settings                : CABAC / 4 Ref Frames
Format settings, CABAC         : Yes
Format settings, Reference fra : 4 frames
Codec ID                       : V_MPEG4/ISO/AVC
Duration                       : 1 h 37 min
Bit rate                       : 985 kb/s
Width                          : 1 280 pixels
Height                         : 534 pixels
Display aspect ratio           : 2.40:1
Frame rate mode                : Constant
Frame rate                     : 23.976 (24000/1001) FPS
Original frame rate            : 23.976 (23976/1000) FPS
Color space                    : YUV
Chroma subsampling             : 4:2:0
Bit depth                      : 8 bits
Scan type                      : Progressive
Bits/(Pixel*Frame)             : 0.060
Stream size                    : 689 MiB (81%)
Writing library                : x264 core 142 r2479 dd79a61
Default                        : Yes
Forced                         : No
Color range                    : Limited
Color primaries                : BT.709
Matrix coefficients            : BT.709

Audio #1
ID                             : 2
Format                         : AAC LC SBR
Format/Info                    : Advanced Audio Codec Low Complexity with Spectral Band Replication
Commercial name                : HE-AAC
Format settings                : Implicit
Codec ID                       : A_AAC-2
Duration                       : 1 h 37 min
Bit rate                       : 128 kb/s
Channel(s)                     : 2 channels
Channel layout                 : L R
Sampling rate                  : 48.0 kHz
Frame rate                     : 23.438 FPS (2048 SPF)
Compression mode               : Lossy
Delay relative to video        : -83 ms
Stream size                    : 89.6 MiB (11%)
Language                       : Hindi
Default                        : Yes
Forced                         : Yes

Audio #2
ID                             : 3
Format                         : AAC LC
Format/Info                    : Advanced Audio Codec Low Complexity
Codec ID                       : A_AAC-2
Duration                       : 1 h 37 min
Bit rate                       : 93.7 kb/s
Channel(s)                     : 2 channels
Channel layout                 : L R
Sampling rate                  : 48.0 kHz
Frame rate                     : 46.875 FPS (1024 SPF)
Compression mode               : Lossy
Delay relative to video        : -83 ms
Stream size                    : 65.6 MiB (8%)
Language                       : English
Default                        : No
Forced                         : No

Text
ID                             : 4
Format                         : UTF-8
Codec ID                       : S_TEXT/UTF8
Codec ID/Info                  : UTF-8 Plain Text
Duration                       : 1 h 32 min
Bit rate                       : 63 b/s
Count of elements              : 1411
Stream size                    : 42.7 KiB (0%)
Language                       : English
Default                        : Yes
Forced                         : No

Screen Shoots
Category:Movies > Dubs/Dual Audio
Lang:Hindi  Hindi
Total Size:846 MB
Info Hash:51f0c8ece9f434c2edc4eb864869ded285f7ba76
Added By:full4movies
Date Added:21-11-2020 09:55:50

  

Files

File List: 
 File Size
Predestination (2014) 720p [Hindi Dubbed - Eng] HDRip x264 AAC ESub By Full4Movies.mkv846 MB



Comments

There are currently no comments. Be the first one to write something !