ddr the mandalorian Star Trek Discovery The Mandalorian S02E04 Let Him Go 2020 Elf 2003 2160p etrg SEAL Team S04E01 macgyver s05e01 Station 19 S04E03 Seal Team Suraj Pe Mangal Bhari Superintelligence 2020 Gold Rush S11E07 The Flight Attendant S01E01 the flight attendant yts Greys Anatomy S17E04 tenet 2020 warrior  greys anatomy Godmothered 2020 tenet next ettv His Dark Materials evo Blue Bloods S11E01 Big Sky s01e03 ethd Freaky 2020 Wander 2020 young sheldon Magnum P.I. S03E01 Honest Thief 2020 Home Alone 1990 warrior S02E10 Star Trek Discovery S03E08 Honest Thief hindi Wwe mulan 2020 The Flight Attendant S01E05 station 19 tenet hindi The Christmas Chronicles Part Two 2020 Jiu Jitsu 2020 Fatman 2020 The New Mutants 2020 Law and Order SVU S22E03 etmovies Gold Rush White Water S04E04 SEAL Team s04e02 Greenland 2020 rq.mp4 Run 2020 The Croods A New Age 2020 mandalorian Young Sheldon S04E04 f1 The Undoing S01E06 hindi 2020 The Undoing S01E01 xxx Happiest Season 2020 Mom S08E04 gold rush The Flight Attendant S01E04 0 The Mandalorian S02E05 The Mandalorian s02e06 mandalorian s02e06 
Warning! Use a VPN When Downloading Torrents!
Your IP Address is 3.216.79.60. Location United States
Your Internet Provider can see when you download torrents! Hide your IP Address with a VPN
ETTV warns: You should use VPN to hide your torrenting. HIDE ME NOW
ETTV Recommended TV Shows
Mom.S08E04.720p.HDTV.x264-SYNCOPY torrent
Stephen.Colbert.2020.12.03.Christopher.Krebs.720p.WEB.H264-JEBAITED torrent
The.Daily.Show.2020.12.03.720p.WEB.h264-BAE torrent
The.Mandalorian.S02E06.WEBRip.x264-ION10 torrent
WWE Friday Night SmackDown 2020 12 04 HDTV x264-NWCHD [TJET] torrent
Magnum.P.I.2018.S03E01.WEBRip.x264-ION10 torrent
Warrior.S02E10.1080p.WEB.H264-JEBAITED torrent
WWE Talking Smack 5th Dec 2020 720p WEBRip h264-TJ [TJET] torrent

ETTV Recommended SD
Honest.Thief.2020.BDRip.XviD.AC3-EVO torrent
Invasion.Planet.Earth.2020.BRRip.XviD.AC3-EVO torrent
The.Deeper.You.Dig.2020.BRRip.XviD.AC3-EVO torrent
Deathcember.2020.BRRip.XviD.AC3-EVO torrent

ETTV Recommended HD
Avengement (2019) [Scott Adkins] 1080p H264 DolbyD 5.1 ūüíé nickarad torrent
Free.Lunch.Express.2020.HDRip.XviD.AC3-EVO torrent
Godmothered.2020.HDRip.XviD.AC3-EVO torrent
Black.Bear.2020.HDRip.XviD.AC3-EVO torrent

ETTV Recommended UHD
The.Doorman.2020.MULTi.2160p.BluRay.SDR.DTS-HD.MA.5.1.HEVC-DDR.mkv torrent
Possessor.2020.HDR.2160p.WEB.DDP5.1.HEVC-DDR.mkv torrent
Life.in.a.Year.2020.HDR.2160p.WEB.DDP5.1.HEVC-DDR.mkv torrent
Coming.To.America.1988.MULTi.2160p.HDR.Blu-Ray.DTS-HDMA.5.1.HEVC-DDR.mkv torrent
Collateral.2004.MULTi.2160p.BluRay.HEVC.DTS-HD.MA.5.1-DDR.mkv torrent
Blade.1988.MULTi.2160p.HDR.Bluray.Atmos.7.1.HEVC-DDR.mkv torrent

ETTV Recommended Cam
The Comeback Trail 2020 720p HDCAM-C1NEM4 torrent
Let Him Go (2020) 720p HDCAM [Hindi-Sub] x264 1XBET torrent

ETTV Recommended Foreign
Voces (2020) ITA-SPA Ac3 5.1 WebRip 1080p H264 [ArMor] torrent
Anastasia: Once Upon a Time (2020).1080p.H264.ita.Ac3-5.1.sub.ita.eng-MIRCrew torrent
Waiting for the Barbarians (2019) ITA-ENG Ac3 5.1 BDRip 1080p H264 [ArMor] torrent
Berlin Alexanderplatz 2020 German PROPER 720p BluRay HEVC x265-RMTeam  torrent
Azem 4 : Alacakaranlik (2016) 720p WEBRip x264 Eng Subs [Dual Audio] [Hindi DD 2.0 - Turkish 2.0] Exclusive By -=!Dr.STAR!=- torrent
Needle Park Baby 2020 GERMAN 1080p BluRay DD5.1 HEVC x265-RMTeam  torrent

ETTV Recommended Music
100 Tracks ~Soft Rock (ETTV)  Playlist Spotify~320  kbps Beats‚≠ź torrent
[indie-rock] (2020) Black Foxxes - Black Foxxes [FLAC] [DarkAngie] torrent
Headdock - Techno Syndrome 05-12-2020 [2CD] {1337x} torrent
[indie-folk] (2020) S. Carey - All We Grow [Ten Year Anniversary Edition] [FLAC] [DarkAngie] torrent
VA - Billboard Year End Charts 2020 (Mp3 320kbps) [PMEDIA] ‚≠źÔłŹ torrent
Bruce Springsteen & The E Street Band - Live 11-24-75 Hammersmith Odean London (2CD) (2020) [24-96 Hi-Res] [FLAC] torrent


Download Torrent "Police Power (Thimiru Pudichavan) (2020) 1080p UNCUT [Hindi Dubbed - Tamil]..."

IMDB Details
Description:

N/A

Genre:

N/A

Download Torrent (Magnet)
Download Torrent (File)

Seeds: 98
Leechers: 34

Uploaded by:
full4movies


Category:
Movies > Dubs/Dual Audio


Details
Title:Police Power (Thimiru Pudichavan) (2020) 1080p UNCUT [Hindi Dubbed - Tamil]...
Description:


Visit Us = https://full4movies.xyz/

General
Complete name                  : Police Power (Thimiru Pudichavan) (2020) 1080p UNCUT [Hindi Dubbed - Tamil] HDRip x264 AC3 ESub By Full4Movies.mkv
Format                         : Matroska
Format version                 : Version 4
File size                      : 3.18 GiB
Duration                       : 2 h 34 min
Overall bit rate               : 2 953 kb/s
Encoded date                   : UTC 2020-11-21 04:58:46
Writing application            : mkvmerge v8.0.0 ('Til The Day That I Die') 32bit
Writing library                : libebml v1.3.1 + libmatroska v1.4.2

Video
ID                             : 1
Format                         : AVC
Format/Info                    : Advanced Video Codec
Format profile¬† ¬† ¬† ¬† ¬† ¬† ¬† ¬† ¬†: [email protected]
Format settings                : CABAC / 4 Ref Frames
Format settings, CABAC         : Yes
Format settings, Reference fra : 4 frames
Codec ID                       : V_MPEG4/ISO/AVC
Duration                       : 2 h 34 min
Bit rate                       : 2 631 kb/s
Width                          : 1 920 pixels
Height                         : 816 pixels
Display aspect ratio           : 2.35:1
Frame rate mode                : Constant
Frame rate                     : 25.000 FPS
Color space                    : YUV
Chroma subsampling             : 4:2:0
Bit depth                      : 8 bits
Scan type                      : Progressive
Bits/(Pixel*Frame)             : 0.067
Stream size                    : 2.84 GiB (89%)
Writing library                : x264 core 148 r2708 86b7198
Default                        : Yes
Forced                         : No
Color range                    : Limited
Color primaries                : BT.709
Transfer characteristics       : BT.709
Matrix coefficients            : BT.709

Audio #1
ID                             : 2
Format                         : AC-3
Format/Info                    : Audio Coding 3
Commercial name                : Dolby Digital
Codec ID                       : A_AC3
Duration                       : 2 h 34 min
Bit rate mode                  : Constant
Bit rate                       : 192 kb/s
Channel(s)                     : 2 channels
Channel layout                 : L R
Sampling rate                  : 48.0 kHz
Frame rate                     : 31.250 FPS (1536 SPF)
Compression mode               : Lossy
Delay relative to video        : -5 ms
Stream size                    : 212 MiB (7%)
Language                       : Hindi
Service kind                   : Complete Main
Default                        : Yes
Forced                         : Yes

Audio #2
ID                             : 3
Format                         : AC-3
Format/Info                    : Audio Coding 3
Commercial name                : Dolby Digital
Codec ID                       : A_AC3
Duration                       : 2 h 34 min
Bit rate mode                  : Constant
Bit rate                       : 128 kb/s
Channel(s)                     : 2 channels
Channel layout                 : L R
Sampling rate                  : 48.0 kHz
Frame rate                     : 31.250 FPS (1536 SPF)
Compression mode               : Lossy
Delay relative to video        : -5 ms
Stream size                    : 141 MiB (4%)
Language                       : Tamil
Service kind                   : Complete Main
Default                        : No
Forced                         : No

Text
ID                             : 4
Format                         : ASS
Codec ID                       : S_TEXT/ASS
Codec ID/Info                  : Advanced Sub Station Alpha
Duration                       : 2 h 32 min
Bit rate                       : 129 b/s
Count of elements              : 2551
Compression mode               : Lossless
Stream size                    : 144 KiB (0%
Language                       : English
Default                        : Yes
Forced                         : No

Screen Shoots
Category:Movies > Dubs/Dual Audio
Lang:Hindi  Hindi
Total Size:3.18 GB
Info Hash:26ac5d852e9509a2b4ae968b7d61cef41d3b34f1
Added By:full4movies
Date Added:21-11-2020 06:05:03

  

Files

File List: 
 File Size
Police Power (Thimiru Pudichavan) (2020) 1080p UNCUT [Hindi Dubbed - Tamil] HDRip x264 AC3 ESub By Full4Movies.mkv3.18 GB



Comments

There are currently no comments. Be the first one to write something !