Let Him Go 2020 Star Trek Discovery S03E07 The New Mutants 2020 The Mandalorian S02E02 Gold Rush S11E06 Tenet 2020 Elf 2003 The Flight Attendant S01E01 NCIS Gold Rush White Water S04E03 evo the flight attendant ludo Big Sky S01E02 xxx NeXt freaky 2020 tenet Honest Thief 2020 Unhinged 2020 hindi 2020 neXt S01E05 Mulan 2020 ethd Home Alone 1990 The Flight Attendant S01E03 0 The Mandalorian S02E01 wwe Superintelligence 2020 The Flight Attendant S01E02 Run 2020 mandalorian Roald Dahls The Witches 2020 Star Trek Discovery The Mandalorian S02E04 rq.mp4 greys anatomy The Mandalorian S02E05 Jingle Jangle A Christmas Journey 2020 tamil Fatman 2020 S.W.A.T. S04E04 Hindi Warrior S02E09 ettv The Walking Dead The Masked Singer S04E09 scam 1992 The undoing s01e05 Jiu Jitsu 2020 Naxalbari Supernatural young sheldon The Mandalorian  warrior The Christmas Chronicles Part Two 2020 Boss Level 2020 yts gold rush etmovies The Mandalorian S02E03 ddr The Croods A New Age 2020 etrg 2160P mirzapur Happiest Season 2020 Greenland 2020 His Dark Materials f1 the undoing mandalorian s02e05 
Warning! Use a VPN When Downloading Torrents!
Your IP Address is 3.237.66.86. Location United States
Your Internet Provider can see when you download torrents! Hide your IP Address with a VPN
ETTV warns: You should use VPN to hide your torrenting. HIDE ME NOW
ETTV Recommended TV Shows
WWE Friday Night SmackDown 2020 11 27 1080p HDTV x264-Star [TJET] torrent
F2. 2020. R11. Bahrain Weekend On Sky F1 HD. 1080P torrent
Gold.Rush.S11E06.Big.Red.vs.Sluicifer.WEBRip.x264-CAFFEiNE torrent
The.Astronauts.S01E04.WEBRip.x264-ION10 torrent
Warrior.S02E09.PROPER.WEBRip.x264-ION10 torrent
Impossible.Engineering.Series.9.Part.1.Largest.Plane.Stratolaunch.1080p.HDTV.x264.AAC,MVGroup.org.mp4 torrent
Continuum.S04.720p.x265-ZMNT torrent
WWE The Best Of WWE Ep 55 The Best Of Sasha Banks 1500k 720p WEBRip h264-TJ [TJET] torrent

ETTV Recommended SD
Midnight.at.the.Magnolia.2020.HDRip.XviD.AC3-EVO torrent
Tenet.2020.HDRip.XviD.AC3-EVO torrent
After We Collided.2020.BDRip.XviD-EVO torrent
Riding.With.Sugar.2020.HDRip.XviD.AC3-EVO torrent

ETTV Recommended HD
Parallels - Sci-Fi 2015 Eng Subs 1080p [H264-mp4] torrent
Tenet.2020.1080p.HDRip.X264.AC3-EVO torrent
The McMasters  (Western 1970)  Burl Ives  720p torrent
Criminal 2016 BluRay 1080p DTS AC3 x264-3Li torrent

ETTV Recommended UHD
Beverly.Hills.Cop.1984.MULTi.2160p.UHD.Bluray.DTS-HDMA.5.1.HEVC-DDR.mkv torrent
Fearless.2020.2160p.HDR.WEB.DDP.5.1.HEVC-DDR.mkv torrent
Groundhog.Day.1993.MULTi.2160p.UHD.Blu-ray.HEVC.Atmos.TrueHD.7.1-DDR.mkv torrent
Let.Him.Go.2020.2160p.HDR.WEB.DDP.5.1.HEVC-DDR.mkv torrent
The.Great.Gatsby.2013.UHD.2160p.HDR.BluRay.DTS-HDMA.5.1.HEVC-DDR.mkv torrent
King.of.New.York.1990.2160p.HDR.Blu-ray.DTS-HD.MA.5.1.HEVC-DDR.mkv torrent

ETTV Recommended Cam
The Comeback Trail 2020 720p HDCAM-C1NEM4 torrent
Let Him Go (2020) 720p HDCAM [Hindi-Sub] x264 1XBET torrent

ETTV Recommended Foreign
Transmorphers (2007) 720p WEB-DL x264 [Dual Audio] [Hindi DD 2.0 - English 5.1] Exclusive By -=!Dr.STAR!=- torrent
Wild Rose (2018) A Proposito di Rose. BluRay 1080p.H264 Ita Eng AC3 5.1 Sub Ita Eng ODS torrent
Samjin Company English Class 2020 720p Korean H264 BONE torrent
The Witches - Le streghe (2020).720p.H264.ita.eng.Ac3-5.1.sub.ita.eng-MIRCrew torrent
Undine.2020.1080p.BRRip.x264.AC3.HORiZON-ArtSubs torrent
Train to Busan 2 - Peninsula (2020) 720p (Cleaned) Hindi Dubbed HDRip x264 AAC By Full4Movies torrent

ETTV Recommended Music
Jennifer Lopez - In The Morning {Single} (2020) Mp3 320kbps [PMEDIA] ⭐️ torrent
The Official UK Top 40 Singles Chart (27.11.2020) Mp3 (320kbps) [Hunter] torrent
Supergrass - Live on Other Planets (2CD) (2020) (320) [DJ] torrent
100 Tracks Relax & Unwind Playlist Spotify  (ETTV)~ 320  kbps Beats⭐ torrent
[indie-rock] (2020) The Nude Party - Midnight Manor [FLAC] [DarkAngie] torrent
Pink Floyd: Delicate Sound Of Thunder (2020)[BDRemux 1080p x 264 by alE13 DTS/PCM][Eng] torrent


Download Torrent "Sleepwalk.2018.1080p.WEB-DL.x264.AAC.HORiZON-ArtSubs"

IMDB Details
Description:

A man goes on a journey for a slice of apple pie.

Genre:

Short, Drama

Download Torrent (Magnet)
Download Torrent (File)

Seeds: 2
Leechers: 0

Uploaded by:
artsubs


Category:
Movies > HD 1080p (Great for large screens)


Details
Title:Sleepwalk.2018.1080p.WEB-DL.x264.AAC.HORiZON-ArtSubs
Description:
Release: Sleepwalk.2018.1080p.WEB-DL.x264.AAC.HORiZON-ArtSubs



IMDB: https://www.imdb.com/title/tt7877184/

Subtitle: English, Spanish, French (Softsubs)

Plot: A man goes on a journey for a slice of apple pie and ultimately explores the relationship between food, memory and redemption.

Complete name                  : Sleepwalk.2018.1080p.WEB-DL.x264.AAC.HORiZON-ArtSubs.mkv
Format                         : Matroska
Format version                 : Version 4
File size                      : 412 MiB
Duration                       : 14 min 35 s
Overall bit rate               : 3 945 kb/s
Encoded date                   : UTC 2020-08-26 15:04:38
Writing application            : mkvmerge v48.0.0 ('Fortress Around Your Heart') 64-bit
Writing library                : libebml v1.4.0 + libmatroska v1.6.0

Video
ID                             : 1
Format                         : AVC
Format/Info                    : Advanced Video Codec
Format profile                 : [email protected]
Format settings                : CABAC / 5 Ref Frames
Format settings, CABAC         : Yes
Format settings, Reference fra : 5 frames
Codec ID                       : V_MPEG4/ISO/AVC
Duration                       : 14 min 35 s
Bit rate                       : 3 689 kb/s
Width                          : 1 920 pixels
Height                         : 1 080 pixels
Display aspect ratio           : 16:9
Frame rate mode                : Constant
Frame rate                     : 24.000 FPS
Color space                    : YUV
Chroma subsampling             : 4:2:0
Bit depth                      : 8 bits
Scan type                      : Progressive
Bits/(Pixel*Frame)             : 0.074
Stream size                    : 385 MiB (94%)
Writing library                : x264 core 159 r10 1771b55
Encoding settings              : cabac=1 / ref=5 / deblock=1:0:0 / analyse=0x3:0x113 / me=hex / subme=8 / psy=1 / psy_rd=1.00:0.00 / mixed_ref=1 / me_range=16 / chroma_me=1 / trellis=2 / 8x8dct=1 / cqm=0 / deadzone=21,11 / fast_pskip=1 / chroma_qp_offset=-2 / threads=34 / lookahead_threads=5 / sliced_threads=0 / nr=0 / decimate=1 / interlaced=0 / bluray_compat=0 / stitchable=1 / constrained_intra=0 / bframes=3 / b_pyramid=2 / b_adapt=2 / b_bias=0 / direct=3 / weightb=1 / open_gop=0 / weightp=2 / keyint=infinite / keyint_min=24 / scenecut=40 / intra_refresh=0 / rc_lookahead=50 / rc=crf / mbtree=1 / crf=20.0 / qcomp=0.60 / qpmin=5 / qpmax=69 / qpstep=4 / vbv_maxrate=5500 / vbv_bufsize=15000 / crf_max=0.0 / nal_hrd=none / filler=0 / ip_ratio=1.40 / aq=1:1.00
Default                        : Yes
Forced                         : No
Color range                    : Limited
Color primaries                : BT.709
Transfer characteristics       : BT.709
Matrix coefficients            : BT.709

Audio
ID                             : 2
Format                         : AAC LC
Format/Info                    : Advanced Audio Codec Low Complexity
Codec ID                       : A_AAC-2
Duration                       : 14 min 35 s
Bit rate                       : 253 kb/s
Channel(s)                     : 2 channels
Channel layout                 : L R
Sampling rate                  : 48.0 kHz
Frame rate                     : 46.875 FPS (1024 SPF)
Compression mode               : Lossy
Stream size                    : 26.4 MiB (6%)
Language                       : English
Default                        : Yes
Forced                         : No

Text #1
ID                             : 3
Format                         : UTF-8
Codec ID                       : S_TEXT/UTF8
Codec ID/Info                  : UTF-8 Plain Text
Duration                       : 13 min 27 s
Bit rate                       : 22 b/s
Count of elements              : 69
Stream size                    : 2.19 KiB (0%)
Language                       : English
Default                        : Yes
Forced                         : No

Text #2
ID                             : 4
Format                         : UTF-8
Codec ID                       : S_TEXT/UTF8
Codec ID/Info                  : UTF-8 Plain Text
Duration                       : 13 min 27 s
Bit rate                       : 23 b/s
Count of elements              : 70
Stream size                    : 2.32 KiB (0%)
Language                       : Spanish
Default                        : No
Forced                         : No

Text #3
ID                             : 5
Format                         : UTF-8
Codec ID                       : S_TEXT/UTF8
Codec ID/Info                  : UTF-8 Plain Text
Duration                       : 13 min 27 s
Bit rate                       : 24 b/s
Count of elements              : 70
Stream size                    : 2.37 KiB (0%)
Language                       : French
Default                        : No
Forced                         : No


SCREENSHOTS:






Category:Movies > HD 1080p
Lang:English  English
Total Size:412 MB
Info Hash:fc29abeacefa2c5061064dcf17696b5895c9a399
Added By:artsubs
Date Added:20-11-2020 19:59:04

  

Files

File List: 
 File Size
Sleepwalk.2018.1080p.WEB-DL.x264.AAC.HORiZON-ArtSubs.mkv412 MB



Comments

There are currently no comments. Be the first one to write something !