mandalorian s.w.a.t ddr The Christmas Chronicles Part Two 2020 big sky scam 1992  Big Sky S01E01 neXt S01E05 The Undoing S01E05 aew The Goldbergs S08E06 Freaky 2020 The Good Doctor S04E04 for life Animaniacs s06e09 720p Hindi 2020 Jiu Jitsu 2020 rq.mp4 minx 0 NeXt The Flight Attendant The Mandalorian  Hindi supernatural 2160p The Curse of Oak Island S08E03 FBI S03E02 Let Him Go 2020 etrg evo The Amazing Race S32E09 The Mandalorian S02E04 tamil Greenland 2020 wwe Tenet The Croods A New Age 2020 the good doctor Jingle Jangle A Christmas Journey 2020 yts FBI Most Wanted S02E02 The Mandalorian S02E03 star trek discovery etmovies Jallikattu The Mandalorian S02E02 marvel week Star Trek discovery s03e07 his dark materials mulan 2020 Star trek  Honest Thief 2020 ethd The New Mutants 2020 Roald Dahls The Witches 2020 Ludo Tenet 2020 ettv Big Sky S01E02 Animaniacs s06e11 720p xxx The Conners s03e05 Fatman 2020 The Mandalorian S02E01 For Life S02E02 Beyond Oak Island S01E02 FBI S.W.A.T. S04E04 Run 2020 star trek discovery s03e06 Ncis NCIS S18E02 
Warning! Use a VPN When Downloading Torrents!
Your IP Address is 34.237.138.69. Location United States
Your Internet Provider can see when you download torrents! Hide your IP Address with a VPN
ETTV warns: You should use VPN to hide your torrenting. HIDE ME NOW
ETTV Recommended TV Shows
The.Conners.S03E05.720p.HDTV.x264-SYNCOPY torrent
The.Goldbergs.2013.S08E06.720p.HDTV.x264-SYNCOPY torrent
Titan FC 65 720p WEB-DL H264 Fight-BB torrent
The.Walking.Dead.World.Beyond.S01E10.1080p.WEB.H264-CAKES torrent
Nat.Geo.Sea.of.Shadows.1080p.x265.AAC.MVGroup.org.mkv torrent
Miz & Mrs S02E11 Miz-ter Mom HDTV x264-NWCHD [TJET] torrent
The.Masked.Singer.S04E09.720p.WEB.h264-KOGi torrent
The.Mandalorian.S02E05.1080p.WEB.H264-GGWP torrent
Hells.Kitchen.US.S19E11.WEBRip.x264-ION10 torrent
NJPW 2020 11 25 Best Of The Super Jr.27 Day 5 ENGLISH 720p WEB h264-LATE [TJET] torrent

ETTV Recommended SD
Life.in.a.Year.2020.HDRip.XviD.AC3-EVO torrent
Faith.2020.HDRip.XviD.AC3-EVO torrent
Black.Beauty.2020.HDRip.XviD.AC3-EVO torrent
A.Christmas.Break.2020.HDRip.XviD.AC3-EVO torrent

ETTV Recommended HD
Come Away (2020) 720p HDRip [Hindi-Sub] x264 torrent
The.Irishman.2019.1080p.BluRay.H264.AAC-RARBG torrent
Dead Man Down (2013) [Colin Farrell] 1080p H264 DolbyD 5.1 ūüíé nickarad torrent
Snow Dog  (Western 1950)  Kirby Grant  720p torrent

ETTV Recommended UHD
Beverly.Hills.Cop.1984.MULTi.2160p.UHD.Bluray.DTS-HDMA.5.1.HEVC-DDR.mkv torrent
Fearless.2020.2160p.HDR.WEB.DDP.5.1.HEVC-DDR.mkv torrent
Groundhog.Day.1993.MULTi.2160p.UHD.Blu-ray.HEVC.Atmos.TrueHD.7.1-DDR.mkv torrent
Let.Him.Go.2020.2160p.HDR.WEB.DDP.5.1.HEVC-DDR.mkv torrent
The.Great.Gatsby.2013.UHD.2160p.HDR.BluRay.DTS-HDMA.5.1.HEVC-DDR.mkv torrent
King.of.New.York.1990.2160p.HDR.Blu-ray.DTS-HD.MA.5.1.HEVC-DDR.mkv torrent

ETTV Recommended Cam
The Comeback Trail 2020 720p HDCAM-C1NEM4 torrent
Let Him Go (2020) 720p HDCAM [Hindi-Sub] x264 1XBET torrent

ETTV Recommended Foreign
Battle Scars (2020) 720p WEBRip x264 Eng Subs [Dual Audio] [Hindi DD 2.0 - English 2.0] Exclusive By -=!Dr.STAR!=- torrent
Train to Busan (2016) HDRip 720p Org [Hindi Dub + English] x264 Mp3 ESub By Full4Movies torrent
The.Call.2020.1080p.NF.WEB-DL.HIN-ENG.DDP5.1.x264-Telly torrent
Diego Maradona (2019) BluRay 1080p.H264 Ita/Spa AC3 5.1 Sub Ita ODS torrent
Killing Gunther (2017) [1080p] [MP4] [crestiec] torrent
Anna.2019.SHORT.1080p.WEB-DL.x264.AAC.HORiZON-ArtSubs torrent

ETTV Recommended Music
The Official UK Top 40 Singles Chart (20.11.2020) Mp3 (320kbps) [Hunter] torrent
Dope Boys~Trap Gods (feat.2 Chainz~Rick Ross) Single (ETTV)~320~kbps Beats‚≠ź torrent
Granger Smith - Country Things, Vol. 2 (2020) Mp3 320kbps [PMEDIA] ‚≠źÔłŹ torrent
Jimi Hendrix Experience: Live In Maui (2020) [BDRemux 1080p x 264 by alE13 DTS/AC3/PCM][Multi Sub][Eng] torrent
Dream Theater - Distant Memories - Live in London (Bonus Track Edition) (3CD) (2020) [FLAC] [DJ] torrent
[indie-rock] (2020) Sad13 - Haunted Painting [FLAC] [DarkAngie] torrent


Download Torrent "Anaganaga O Athidhi (2020) 720p Telugu HDRip x264 AAC ESub By Full4Movies"

IMDB Details
Description:

N/A

Genre:

N/A

Download Torrent (Magnet)
Download Torrent (File)

Seeds: 28
Leechers: 34

Uploaded by:
full4movies


Category:
Movies > Bollywood


Details
Title:Anaganaga O Athidhi (2020) 720p Telugu HDRip x264 AAC ESub By Full4Movies
Description:


Visit Us = https://full4movies.xyz/

General
Complete name                  : Anaganaga O Athidhi (2020) 720p Telugu HDRip x264 AAC ESub By Full4Movies.mkv
Format                         : Matroska
Format version                 : Version 4
File size                      : 1.14 GiB
Duration                       : 1 h 32 min
Overall bit rate               : 1 765 kb/s
Encoded date                   : UTC 2020-11-20 16:07:47
Writing application            : mkvmerge v8.0.0 ('Til The Day That I Die') 32bit
Writing library                : libebml v1.3.1 + libmatroska v1.4.2

Video
ID                             : 1
Format                         : AVC
Format/Info                    : Advanced Video Codec
Format profile¬† ¬† ¬† ¬† ¬† ¬† ¬† ¬† ¬†: [email protected]
Format settings                : CABAC / 4 Ref Frames
Format settings, CABAC         : Yes
Format settings, Reference fra : 4 frames
Codec ID                       : V_MPEG4/ISO/AVC
Duration                       : 1 h 32 min
Bit rate                       : 1 622 kb/s
Width                          : 1 280 pixels
Height                         : 720 pixels
Display aspect ratio           : 16:9
Frame rate mode                : Constant
Frame rate                     : 24.000 FPS
Color space                    : YUV
Chroma subsampling             : 4:2:0
Bit depth                      : 8 bits
Scan type                      : Progressive
Bits/(Pixel*Frame)             : 0.073
Stream size                    : 1.04 GiB (91%)
Writing library                : x264 core 155 r2893 b00bcaf
Language                       : Telugu
Default                        : Yes
Forced                         : No
Color range                    : Limited
Color primaries                : BT.709
Transfer characteristics       : BT.709
Matrix coefficients            : BT.709

Audio
ID                             : 2
Format                         : AAC LC
Format/Info                    : Advanced Audio Codec Low Complexity
Codec ID                       : A_AAC-2
Duration                       : 1 h 32 min
Bit rate                       : 159 kb/s
Channel(s)                     : 2 channels
Channel layout                 : L R
Sampling rate                  : 48.0 kHz
Frame rate                     : 46.875 FPS (1024 SPF)
Compression mode               : Lossy
Stream size                    : 105 MiB (9%)
Language                       : Telugu
Default                        : Yes
Forced                         : No

Text
ID                             : 3
Format                         : UTF-8
Codec ID                       : S_TEXT/UTF8
Codec ID/Info                  : UTF-8 Plain Text
Duration                       : 1 h 31 min
Bit rate                       : 55 b/s
Count of elements              : 1239
Stream size                    : 37.0 KiB (0%)
Language                       : English
Default                        : Yes
Forced                         : No

Screen Shoots
Category:Movies > Bollywood
Lang:Telugu  Telugu
Total Size:1.14 GB
Info Hash:4d27e0d9fbf52cbaa1b3c6d456232c4c219943bf
Added By:full4movies
Date Added:20-11-2020 17:44:53

  

Files

File List: 
 File Size
Anaganaga O Athidhi (2020) 720p Telugu HDRip x264 AAC ESub By Full4Movies.mkv1.14 GB



Comments

There are currently no comments. Be the first one to write something !