The Flight Attendant S01E04 tenet hindi 2020 fargo the mandalorian yts star trek discovery Happiest Season 2020 mandalorian 2160p Fatman 2020 The Curse of Oak Island S08E04 Greenland 2020 The Flight Attendant S01E01 the walking dead rq.mp4 Jiu Jitsu 2020 The Undoing S01E04 Star Trek Discovery S03E07 Tenet 2020 The Mandalorian S02E04 the curse of oak island Freaky 2020 star trek The Conners S03E06 SEAL Team s04e01 The Undoing S01E02 ddr xxx evo The Bachelorette S16E08 the undoing Next S01E06 The Goldbergs S08E07 The Masked Singer S04E10 Star Trek Discovery S03E08 Seal team Honest Thief 2020 wwe  SEAL Team S04E02 marvel week The Undoing S01E01 His Dark Materials Superintelligence 2020 The Undoing S01E03 Hillbilly Elegy 2020 Big Sky S01E03 etrg the flight attendant s01e02 Tamil The flight attendant i may destroy you The Croods A New Age 2020 Let Him Go 2020 next Aew For Life S02E03 The Flight Attendant S01E03 Hindi The New Mutants 2020 The Mandalorian S02E05 The Good Doctor S04E05 Run 2020 His Dark Materials S02E04 etmovies ettv ncis The Undoing S01E05 0 The Christmas Chronicles Part Two 2020 The Undoing S01E06 The Mandalorian S02E03 ethd 
Warning! Use a VPN When Downloading Torrents!
Your IP Address is 3.216.79.60. Location United States
Your Internet Provider can see when you download torrents! Hide your IP Address with a VPN
ETTV warns: You should use VPN to hide your torrenting. HIDE ME NOW
ETTV Recommended TV Shows
The.Bachelorette.S16E08.720p.WEB.h264-KOGi torrent
The.Daily.Show.2020.12.01.WEB.h264-BAE torrent
Stephen.Colbert.2020.12.01.Bryan.Cranston.720p.WEB.H264-JEBAITED torrent
The.Curse.of.Oak.Island.S08E04.720p.HDTV.x264-SYNCOPY torrent
Life.Below.Zero.S15E04.Inside.Out.WEB.h264-CAFFEiNE torrent
WWE NXT 2020 12 02 HDTV x264-Star [TJET] torrent
AEW Dynamite 2020 12 02 Winter Is Coming 720p HDTV x264-NWCHD [TJET] torrent
Star.Trek.Discovery.S03E08.WEBRip.x264-ION10 torrent

ETTV Recommended SD
Legacy.Of.Lies.2020.BDRip.XviD.AC3-EVO torrent
The.Loss.Adjuster.2020.HDRip.XviD.AC3-EVO torrent
The.Knight.and.the.Princess.2020.HDRip.XviD.AC3-EVO torrent
The.Taverna.2020.HDRip.XviD.AC3-EVO torrent

ETTV Recommended HD
Red Planet - Sci-Fi 2000 Eng Ita Rus Multi-Subs 720p [H264-mp4] torrent
Count Three and Pray  (Western 1955)  Van Heflin  720p  BrRip torrent
Avengement (2019) [Scott Adkins] 1080p H264 DolbyD 5.1 ūüíé nickarad torrent
Free.Lunch.Express.2020.HDRip.XviD.AC3-EVO torrent

ETTV Recommended UHD
The.Doorman.2020.MULTi.2160p.BluRay.SDR.DTS-HD.MA.5.1.HEVC-DDR.mkv torrent
Possessor.2020.HDR.2160p.WEB.DDP5.1.HEVC-DDR.mkv torrent
Life.in.a.Year.2020.HDR.2160p.WEB.DDP5.1.HEVC-DDR.mkv torrent
Coming.To.America.1988.MULTi.2160p.HDR.Blu-Ray.DTS-HDMA.5.1.HEVC-DDR.mkv torrent
Collateral.2004.MULTi.2160p.BluRay.HEVC.DTS-HD.MA.5.1-DDR.mkv torrent
Blade.1988.MULTi.2160p.HDR.Bluray.Atmos.7.1.HEVC-DDR.mkv torrent

ETTV Recommended Cam
The Comeback Trail 2020 720p HDCAM-C1NEM4 torrent
Let Him Go (2020) 720p HDCAM [Hindi-Sub] x264 1XBET torrent

ETTV Recommended Foreign
The Broken Hearts Gallery (2020) BluRay 1080p.H264 Ita Eng AC3 5.1 Sub Ita Eng - ODS torrent
Resident.Evil.2002.ITA.ENG.2160p.UHD.BluRay.x265.HDR-MeM.mkv torrent
Voces (2020) ITA-SPA Ac3 5.1 WebRip 1080p H264 [ArMor] torrent
Anastasia: Once Upon a Time (2020).1080p.H264.ita.Ac3-5.1.sub.ita.eng-MIRCrew torrent
Waiting for the Barbarians (2019) ITA-ENG Ac3 5.1 BDRip 1080p H264 [ArMor] torrent
Berlin Alexanderplatz 2020 German PROPER 720p BluRay HEVC x265-RMTeam  torrent

ETTV Recommended Music
VA - Blues Heroes (All Tracks Remastered) (2020) Mp3 320kbps [PMEDIA] ‚≠źÔłŹ torrent
[indie-folk] (2020) Laura Fell - Safe from Me [FLAC] [DarkAngie] torrent
Amy Winehouse - The Collection (5 CD Boxset) (2020) Mp3 320kbps [PMEDIA] ‚≠źÔłŹ torrent
Bruce Springsteen - 2 Live Concerts (25th June 2005 + 28th April 2008) (2020) [24Bit-Hi-Res FLAC] [DJ] torrent
[indie-pop, indie-rock] (2020) Adrianne Lenker - songs and instrumentals [FLAC] [DarkAngie] torrent
[indie-rock] (2020) Juanita Stein - Snapshot [FLAC] [DarkAngie] torrent


Download Torrent "Star Trek Discovery S03E06 Scavengers 1080p AMZN WEBrip x265 DDP5.1 D0ct0rL..."

IMDB Details
Description:

Ten years before Kirk, Spock, and the Enterprise, the USS Discovery discovers new worlds and lifeforms as one Starfleet officer learns to understand all things alien.

Genre:

Action, Adventure, Drama, Sci-fi

Download Torrent (Magnet)
Download Torrent (File)

Seeds: 757
Leechers: 165

Uploaded by:
D0ct0rLew


Category:
TV > HEVC/x265 (Super High Quality, Small size, high CPU usage)


Details
Title:Star Trek Discovery S03E06 Scavengers 1080p AMZN WEBrip x265 DDP5.1 D0ct0rL...
Description:






Media Information

Unique ID                                : 200779266323697142525924049375899518090 (0x970CAE1C81EF4884AF99355B4B3D848A)
Complete name                            :Star Trek Discovery S03E06 Scavengers 1080p AMZN WEBrip x265 DDP5.1 D0ct0rLew[SEV].mkv
Format                                   : Matroska
Format version                           : Version 4 / Version 2
File size                                : 1 022 MiB
Duration                                 : 49 min 0 s
Overall bit rate                         : 2 915 kb/s
Movie name                               : Star Trek Discovery S03E06 Scavengers 1080p AMZN WEBrip x265 DDP5.1 D0ct0rLew[SEV]
Encoded date                             : UTC 2020-11-20 03:55:38
Writing application                      : mkvmerge v17.0.0 ('Be Ur Friend') 64-bit
Writing library                          : libebml v1.3.5 + libmatroska v1.4.8
Attachments                              : StintUltraCondensed-lL0e.ttf

Video
ID                                       : 1
Format                                   : HEVC
Format/Info                              : High Efficiency Video Coding
Format profile¬†¬†¬†¬†¬†¬†¬†¬†¬†¬†¬†¬†¬†¬†¬†¬†¬†¬†¬†¬†¬†¬†¬†¬†¬†¬† : Main [email protected]@Main
Codec ID                                 : V_MPEGH/ISO/HEVC
Duration                                 : 49 min 0 s
Bit rate                                 : 2 273 kb/s
Width                                    : 1 920 pixels
Height                                   : 1 080 pixels
Display aspect ratio                     : 16:9
Frame rate mode                          : Constant
Frame rate                               : 24.000 FPS
Color space                              : YUV
Chroma subsampling                       : 4:2:0
Bit depth                                : 10 bits
Bits/(Pixel*Frame)                       : 0.046
Stream size                              : 797 MiB (78%)
Writing library                          : x265 3.4+6-g73f96ff39:[Windows][GCC 11.0.0][64 bit] 10bit
Encoding settings                        : cpuid=1049583 / frame-threads=3 / numa-pools=8 / wpp / no-pmode / no-pme / no-psnr / no-ssim / log-level=2 / input-csp=1 / input-res=1920x1080 / interlace=0 / total-frames=1440 / level-idc=0 / high-tier=1 / uhd-bd=0 / ref=3 / no-allow-non-conformance / no-repeat-headers / annexb / no-aud / no-hrd / info / hash=0 / no-temporal-layers / open-gop / min-keyint=24 / keyint=240 / gop-lookahead=0 / bframes=16 / b-adapt=2 / b-pyramid / bframe-bias=0 / rc-lookahead=90 / lookahead-slices=6 / scenecut=40 / hist-scenecut=0 / radl=0 / no-splice / no-intra-refresh / ctu=64 / min-cu-size=8 / no-rect / no-amp / max-tu-size=32 / tu-inter-depth=4 / tu-intra-depth=4 / limit-tu=0 / rdoq-level=0 / dynamic-rd=0.00 / no-ssim-rd / signhide / no-tskip / nr-intra=0 / nr-inter=0 / no-constrained-intra / no-strong-intra-smoothing / max-merge=5 / limit-refs=0 / no-limit-modes / me=1 / subme=7 / merange=92 / temporal-mvp / no-frame-dup / no-hme / weightp / no-weightb / no-analyze-src-pics / deblock=0:0 / sao / no-sao-non-deblock / rd=3 / selective-sao=4 / early-skip / rskip / no-fast-intra / no-tskip-fast / no-cu-lossless / b-intra / no-splitrd-skip / rdpenalty=0 / psy-rd=1.10 / psy-rdoq=0.00 / no-rd-refine / no-lossless / cbqpoffs=0 / crqpoffs=0 / rc=crf / crf=18.5 / qcomp=0.60 / qpstep=4 / stats-write=0 / stats-read=0 / ipratio=1.40 / pbratio=1.30 / aq-mode=4 / aq-strength=1.00 / cutree / zone-count=0 / no-strict-cbr / qg-size=32 / no-rc-grain / qpmax=69 / qpmin=0 / no-const-vbv / sar=1 / overscan=0 / videoformat=5 / range=0 / colorprim=2 / transfer=2 / colormatrix=2 / chromaloc=0 / display-window=0 / cll=0,0 / min-luma=0 / max-luma=1023 / log2-max-poc-lsb=8 / vui-timing-info / vui-hrd-info / slices=1 / no-opt-qp-pps / no-opt-ref-list-length-pps / no-multi-pass-opt-rps / scenecut-bias=0.05 / hist-threshold=0.01 / no-opt-cu-delta-qp / no-aq-motion / no-hdr10 / no-hdr10-opt / no-dhdr10-opt / no-idr-recovery-sei / analysis-reuse-level=0 / analysis-save-reuse-level=0 / analysis-load-reuse-level=0 / scale-factor=0 / refine-intra=0 / refine-inter=0 / refine-mv=1 / refine-ctu-distortion=0 / no-limit-sao / ctu-info=0 / no-lowpass-dct / refine-analysis-type=0 / copy-pic=1 / max-ausize-factor=1.0 / no-dynamic-refine / no-single-sei / no-hevc-aq / no-svt / no-field / qp-adaptation-range=1.00 / no-scenecut-aware-qpconformance-window-offsets / right=0 / bottom=0 / decoder-max-rate=0
Default                                  : Yes
Forced                                   : No

Audio
ID                                       : 2
Format                                   : E-AC-3
Format/Info                              : Enhanced Audio Coding 3
Format settings, Endianness              : Big
Codec ID                                 : A_EAC3
Duration                                 : 49 min 0 s
Bit rate mode                            : Constant
Bit rate                                 : 640 kb/s
Channel(s)                               : 6 channels
Channel positions                        : Front: L C R, Side: L R, LFE
Sampling rate                            : 48.0 kHz
Frame rate                               : 187.500 FPS (256 spf)
Compression mode                         : Lossy
Stream size                              : 224 MiB (22%)
Language                                 : English
Service kind                             : Complete Main
Default                                  : Yes
Forced                                   : No

Text
ID                                       : 3
Format                                   : ASS
Codec ID                                 : S_TEXT/ASS
Codec ID/Info                            : Advanced Sub Station Alpha
Duration                                 : 47 min 14 s
Bit rate                                 : 118 b/s
Count of elements                        : 732
Compression mode                         : Lossless
Stream size                              : 41.1 KiB (0%)
Language                                 : English
Default                                  : Yes
Forced                                   : No

We have no issue with individuals posting or re-uploading our torrents on a platform we aren't on. However, if this is something you'd like to do, please do so in a 'as-is' format. We ask that you do not create a new torrent, include all descriptions you see above including the SEV logo, tags, notes and screenshots.
If you'd like to become a permanent poster on a website we don't post to, feel free to get in contact with a Sublime Encoded Video member.

We are recruiting/training new members for SEV & seedbox providers as well as people to help out with subtitles.
As you already know, we deliver quality, so you know the standard.
If you're interested, feel free to contact any of the team members.

Category:TV > HEVC/x265
Lang:English  English
Total Size:1,022 MB
Info Hash:825e3953ae747e0b0a3b595572080ff2c505c33c
Added By:D0ct0rLew
Date Added:20-11-2020 04:30:50

  

Files

File List: 
 File Size
Contact SEV.txt1.03 kB
Star Trek Discovery S03E06 Scavengers 1080p AMZN WEBrip x265 DDP5.1 D0ct0rLew[SEV].mkv1,022 MB



Comments

There are currently no comments. Be the first one to write something !