warrior The Undoing Mirzapur The Witches 2020 borat ethd The Doorman 2020 XXX Fear the walking dead  Last Week Tonight with John Oliver S07E27 yts Fear the Walking Dead S06E03 ettv Over the Moon 2020 scam 1992 motogp Helstrom S01E01 Unhinged 2020 Star Trek Discovery S03E02 Warrior S02E04 supernatural etmovies mirzapur season 2 Roald Dahls The Witches 2020 mirzapur 2 supernatural s15e16 hindi  Love and Monsters 2020 Star Trek Discovery S03E01 Alone 2020 Saturday Night Live S46E04 fargo The Undoing S01E01 ddr Greenland 2020 F1 On the Rocks 2020 Mulan 2020 The War with Grandpa 2020 The Wolf of Snow Hollow 2020 The Trial of the Chicago 7 2020 malayalam tenet After We Collided 2020 The New Mutants 2020 The Walking Dead Ava 2020 The Spanish Princess S02E03 etrg Tenet 2020 next f1 2020 rq.mp4 Hubie Halloween 2020 formula1 Honest Thief 2020 Gold Rush S11E01 Last Week Tonight EVO Formula 1  Borat Subsequent Moviefilm 2020 Fargo S04E06 hindi 2020 The Walking Dead World Beyond S01E04 nascar ufc 2067 2020 the boys evo star trek discovery 0 wwe formula 
Warning! Use a VPN When Downloading Torrents!
Your IP Address is 18.234.97.53. Location United States
Your Internet Provider can see when you download torrents! Hide your IP Address with a VPN
ETTV warns: You should use VPN to hide your torrenting. HIDE ME NOW
ETTV Recommended TV Shows
Fargo.S04E06.Camp.Elegance.HDTV.x264-CRiMSON torrent
The.Undoing.S01E01.WEBRip.x264-ION10 torrent
Last.Week.Tonight.with.John.Oliver.S07E27.WEBRip.x264-ION10 torrent
Pandora.2019.S02E04.WEB.h264-BAE torrent
The.Spanish.Princess.S02E03.WEBRip.x264-ION10 torrent
BBC.Great.Crimes.and.Trials.Series.3.Set.1.09of14.DeFeo.and.Benson.Inheritance.Killers.x264.AAC.MVGroup.Forum.mkv torrent

ETTV Recommended SD
My.Adventures.with.Santa.2019.BRRip.XviD.AC3-EVO torrent
Schism.2020.HDRip.XviD.AC3-EVO torrent
Paradise.Z.2020.HDRip.XviD.AC3-EVO torrent
WWII.the.Long.Road.Home.2019.HDRip.XviD.AC3-EVO torrent

ETTV Recommended HD
Once.Upon.a.Snowman.2020.DSNYP.1080p.WEBRip.X264.Atmos-EVO torrent
Nomis (2018) Night Hunter. BluRay 1080p.H264 Ita Eng AC3 5.1 Sub Ita Eng MIRCrew torrent
Sleepy Hollow - Johnny Depp Horror 1999 Eng Multi-Subs 1080p [H264-mp4] torrent
Captain America The First Avenger 2011 BluRay 1080p DTS AC3 x264-3Li torrent

ETTV Recommended UHD
Back.to.the.Future.1985.MULTi.2160p.Bluray.HDR.Atmos.7.1.HEVC-DDR.mkv torrent
Back.to.the.Future.Part.II.1989.MULTi.2160p.Bluray.HDR.Atmos.7.1.HEVC-DDR.mkv torrent
The.Boys.in.the.Band.2020.4K.MULTI.2160p.HDR.WEB.DDP.5.1.HEVC-DDR.mkv torrent
The.Binding.2020.4K.MULTI.2160p.SDR.WEB.DDP.5.1.HEVC-DDR.mkv torrent
Secret.Society.of.Second.Born.Royals.2020.MULTI.2160p.HDR.WEB.EAC3.5.1.HEVC-DDR.mkv torrent
Back.to.the.Future.Part.III.1990.MULTi.2160p.Bluray.HDR.HEVC.Atmos.7.1.HEVC-DDR.mkv torrent

ETTV Recommended Cam
The.Broken.Hearts.Gallery.2020.HDCAM.x264.LLG torrent
The Secrets We Keep 2020 HDCAM-C1NEM4 torrent

ETTV Recommended Foreign
A Man and A Woman (2016) 720p BluRay x264 Eng Subs [Dual Audio] [Hindi DD 2.0 - Korean 2.0] Exclusive By -=!Dr.STAR!=- torrent
A Company Man (2012) 720p BluRay x264 Eng Subs [Dual Audio] [Hindi DD 2.0 - Korean 2.0] Exclusive By -=!Dr.STAR!=- torrent
Changan Swordsmen : Mystery of God's Wrath (2016) 720p WEBRip x264 [Dual Audio] [Hindi DD 2.0 - English 2.0] Exclusive By -=!Dr.STAR!=- torrent
Possessed (2009) 720p BluRay x264 Eng Subs [Dual Audio] [Hindi DD 2.0 - Korean 5.1] Exclusive By -=!Dr.STAR!=- torrent
Wolf Town (2011) 720p WEBRip x264 Eng Subs [Dual Audio] [Hindi DD 2.0 - English 2.0] Exclusive By -=!Dr.STAR!=- torrent
I Can't Think Straight (2008) 720p WEBRip x264 Eng Subs [Dual Audio] [Hindi DD 2.0 - English 2.0] Exclusive By -=!Dr.STAR!=- torrent

ETTV Recommended Music
[folk-rock, prog-rock] (2018) Tamburlaine - Say No More (1972, Reissue) [FLAC] [DarkAngie] torrent
Lazarus - Down N' Dirty (2020) (320) [DJ] torrent
VA - Ultimate Car Anthems (2020) Mp3 320kbps [PMEDIA] ⭐️ torrent
VA - Now 100 Hits The Legends (2020) Mp3 320kbps [PMEDIA] ⭐️ torrent
Deep Purple - Machine Head (1972) (Vinyl 24-96 FLAC) vtwin88cube torrent
Pink Floyd - The Dark Side Of The Moon (2012 PBTHAL 24-96 FLAC) vtwin88cube torrent


Download Torrent "Hashiwala & Company 2020 S01E04 1080p DSNP WEB-DL H264 AAC-Top10Torren..."

IMDB Details
Description:

N/A

Genre:

N/A

Download Torrent (Magnet)
Download Torrent (File)

Seeds: 8
Leechers: 6

Uploaded by:
Top10Torrent


Category:
TV > HD/X264/H264 (Good for larger screens)


Details
Title:Hashiwala & Company 2020 S01E04 1080p DSNP WEB-DL H264 AAC-Top10Torren...
Description:
 

https://top10torrent.site

General
Unique ID                                : 283807365883458058950233489732606118798 (0xD5834F78F28C15E641CFE099DA084B8E)
Complete name                            : Hashiwala & Company 2020 S01E04  1080p DSNP WEB-DL H264 AAC-Top10Torrent.site.mkv
Format                                   : Matroska
Format version                           : Version 4
File size                                : 955 MiB
Duration                                 : 42 min 55 s
Overall bit rate                         : 3 112 kb/s
Movie name                               : https://top10torrent.site
Encoded date                             : UTC 2020-10-18 06:29:26
Writing application                      : mkvmerge v50.0.0 ('Awakenings') 64-bit
Writing library                          : libebml v1.4.0 + libmatroska v1.6.2


Video
ID                                       : 1
Format                                   : AVC
Format/Info                              : Advanced Video Codec
Format profile                           : [email protected]
Format settings                          : CABAC / 4 Ref Frames
Format settings, CABAC                   : Yes
Format settings, Reference frames        : 4 frames
Codec ID                                 : V_MPEG4/ISO/AVC
Duration                                 : 42 min 55 s
Bit rate                                 : 3 045 kb/s
Width                                    : 1 920 pixels
Height                                   : 1 080 pixels
Display aspect ratio                     : 16:9
Frame rate mode                          : Constant
Frame rate                               : 25.000 FPS
Color space                              : YUV
Chroma subsampling                       : 4:2:0
Bit depth                                : 8 bits
Scan type                                : Progressive
Bits/(Pixel*Frame)                       : 0.059
Stream size                              : 935 MiB (98%)
Title                                    : https://top10torrent.site
Writing library                          : x264 core 155 r2917 0a84d98
Encoding settings                        : cabac=1 / ref=4 / deblock=1:0:0 / analyse=0x3:0x133 / me=umh / subme=10 / psy=1 / psy_rd=1.00:0.00 / mixed_ref=1 / me_range=32 / chroma_me=1 / trellis=2 / 8x8dct=1 / cqm=0 / deadzone=21,11 / fast_pskip=0 / chroma_qp_offset=-2 / threads=14 / lookahead_threads=1 / sliced_threads=0 / nr=0 / decimate=1 / interlaced=0 / bluray_compat=0 / constrained_intra=0 / bframes=4 / b_pyramid=2 / b_adapt=2 / b_bias=0 / direct=1 / weightb=1 / open_gop=0 / weightp=2 / keyint=50 / keyint_min=26 / scenecut=0 / intra_refresh=0 / rc_lookahead=50 / rc=crf / mbtree=1 / crf=25.0 / qcomp=0.50 / qpmin=4 / qpmax=69 / qpstep=4 / vbv_maxrate=3750 / vbv_bufsize=5000 / crf_max=0.0 / nal_hrd=none / filler=0 / ip_ratio=1.40 / aq=1:1.00
Language                                 : Bengali
Default                                  : Yes
Forced                                   : No
Color range                              : Limited
Color primaries                          : BT.709
Transfer characteristics                 : BT.709
Matrix coefficients                      : BT.709


Audio
ID                                       : 2
Format                                   : AAC LC
Format/Info                              : Advanced Audio Codec Low Complexity
Codec ID                                 : A_AAC-2
Duration                                 : 42 min 55 s
Bit rate                                 : 64.5 kb/s
Channel(s)                               : 2 channels
Channel layout                           : L R
Sampling rate                            : 48.0 kHz
Frame rate                               : 46.875 FPS (1024 SPF)
Compression mode                         : Lossy
Stream size                              : 19.8 MiB (2%)
Title                                    : https://top10torrent.site
Language                                 : Bengali
Default                                  : Yes
Forced                                   : No




Category:TV > HD/X264/H264
Lang:Bengali
Total Size:955 MB
Info Hash:6956a4c2c2963c3c216507f09422f3a5e833a876
Added By:Top10Torrent
Date Added:18-10-2020 08:11:19

  

Files

File List: 
 File Size
Hashiwala & Company 2020 S01E04 1080p DSNP WEB-DL H264 AAC-Top10Torrent.site.mkv955 MB



Comments

There are currently no comments. Be the first one to write something !