warrior The Undoing Mirzapur The Witches 2020 borat ethd The Doorman 2020 XXX Fear the walking dead  Last Week Tonight with John Oliver S07E27 yts Fear the Walking Dead S06E03 ettv Over the Moon 2020 scam 1992 motogp Helstrom S01E01 Unhinged 2020 Star Trek Discovery S03E02 Warrior S02E04 supernatural etmovies mirzapur season 2 Roald Dahls The Witches 2020 mirzapur 2 supernatural s15e16 hindi  Love and Monsters 2020 Star Trek Discovery S03E01 Alone 2020 Saturday Night Live S46E04 fargo The Undoing S01E01 ddr Greenland 2020 F1 On the Rocks 2020 Mulan 2020 The War with Grandpa 2020 The Wolf of Snow Hollow 2020 The Trial of the Chicago 7 2020 malayalam tenet After We Collided 2020 The New Mutants 2020 The Walking Dead Ava 2020 The Spanish Princess S02E03 etrg Tenet 2020 next f1 2020 rq.mp4 Hubie Halloween 2020 formula1 Honest Thief 2020 Gold Rush S11E01 Last Week Tonight EVO Formula 1  Borat Subsequent Moviefilm 2020 Fargo S04E06 hindi 2020 The Walking Dead World Beyond S01E04 nascar ufc 2067 2020 the boys evo star trek discovery 0 wwe formula 
Warning! Use a VPN When Downloading Torrents!
Your IP Address is 18.232.146.112. Location United States
Your Internet Provider can see when you download torrents! Hide your IP Address with a VPN
ETTV warns: You should use VPN to hide your torrenting. HIDE ME NOW
ETTV Recommended TV Shows
Fargo.S04E06.Camp.Elegance.HDTV.x264-CRiMSON torrent
The.Undoing.S01E01.WEBRip.x264-ION10 torrent
Last.Week.Tonight.with.John.Oliver.S07E27.WEBRip.x264-ION10 torrent
Pandora.2019.S02E04.WEB.h264-BAE torrent
The.Spanish.Princess.S02E03.WEBRip.x264-ION10 torrent
BBC.Great.Crimes.and.Trials.Series.3.Set.1.09of14.DeFeo.and.Benson.Inheritance.Killers.x264.AAC.MVGroup.Forum.mkv torrent

ETTV Recommended SD
My.Adventures.with.Santa.2019.BRRip.XviD.AC3-EVO torrent
Schism.2020.HDRip.XviD.AC3-EVO torrent
Paradise.Z.2020.HDRip.XviD.AC3-EVO torrent
WWII.the.Long.Road.Home.2019.HDRip.XviD.AC3-EVO torrent

ETTV Recommended HD
Once.Upon.a.Snowman.2020.DSNYP.1080p.WEBRip.X264.Atmos-EVO torrent
Nomis (2018) Night Hunter. BluRay 1080p.H264 Ita Eng AC3 5.1 Sub Ita Eng MIRCrew torrent
Sleepy Hollow - Johnny Depp Horror 1999 Eng Multi-Subs 1080p [H264-mp4] torrent
Captain America The First Avenger 2011 BluRay 1080p DTS AC3 x264-3Li torrent

ETTV Recommended UHD
Back.to.the.Future.1985.MULTi.2160p.Bluray.HDR.Atmos.7.1.HEVC-DDR.mkv torrent
Back.to.the.Future.Part.II.1989.MULTi.2160p.Bluray.HDR.Atmos.7.1.HEVC-DDR.mkv torrent
The.Boys.in.the.Band.2020.4K.MULTI.2160p.HDR.WEB.DDP.5.1.HEVC-DDR.mkv torrent
The.Binding.2020.4K.MULTI.2160p.SDR.WEB.DDP.5.1.HEVC-DDR.mkv torrent
Secret.Society.of.Second.Born.Royals.2020.MULTI.2160p.HDR.WEB.EAC3.5.1.HEVC-DDR.mkv torrent
Back.to.the.Future.Part.III.1990.MULTi.2160p.Bluray.HDR.HEVC.Atmos.7.1.HEVC-DDR.mkv torrent

ETTV Recommended Cam
The.Broken.Hearts.Gallery.2020.HDCAM.x264.LLG torrent
The Secrets We Keep 2020 HDCAM-C1NEM4 torrent

ETTV Recommended Foreign
A Man and A Woman (2016) 720p BluRay x264 Eng Subs [Dual Audio] [Hindi DD 2.0 - Korean 2.0] Exclusive By -=!Dr.STAR!=- torrent
A Company Man (2012) 720p BluRay x264 Eng Subs [Dual Audio] [Hindi DD 2.0 - Korean 2.0] Exclusive By -=!Dr.STAR!=- torrent
Changan Swordsmen : Mystery of God's Wrath (2016) 720p WEBRip x264 [Dual Audio] [Hindi DD 2.0 - English 2.0] Exclusive By -=!Dr.STAR!=- torrent
Possessed (2009) 720p BluRay x264 Eng Subs [Dual Audio] [Hindi DD 2.0 - Korean 5.1] Exclusive By -=!Dr.STAR!=- torrent
Wolf Town (2011) 720p WEBRip x264 Eng Subs [Dual Audio] [Hindi DD 2.0 - English 2.0] Exclusive By -=!Dr.STAR!=- torrent
I Can't Think Straight (2008) 720p WEBRip x264 Eng Subs [Dual Audio] [Hindi DD 2.0 - English 2.0] Exclusive By -=!Dr.STAR!=- torrent

ETTV Recommended Music
[folk-rock, prog-rock] (2018) Tamburlaine - Say No More (1972, Reissue) [FLAC] [DarkAngie] torrent
Lazarus - Down N' Dirty (2020) (320) [DJ] torrent
VA - Ultimate Car Anthems (2020) Mp3 320kbps [PMEDIA] ⭐️ torrent
VA - Now 100 Hits The Legends (2020) Mp3 320kbps [PMEDIA] ⭐️ torrent
Deep Purple - Machine Head (1972) (Vinyl 24-96 FLAC) vtwin88cube torrent
Pink Floyd - The Dark Side Of The Moon (2012 PBTHAL 24-96 FLAC) vtwin88cube torrent


Download Torrent "Sleepy.Hollow.1999.BRRip.XviD.B4ND1T69"

IMDB Details
Description:

Ichabod Crane is sent to Sleepy Hollow to investigate the decapitations of three people, with the culprit being the legendary apparition, The Headless Horseman.

Genre:

Fantasy, Horror, Mystery

Download Torrent (Magnet)
Download Torrent (File)

Seeds: 185
Leechers: 94

Uploaded by:
B4ND1T69


Category:
Movies > XviD


Details
Title:Sleepy.Hollow.1999.BRRip.XviD.B4ND1T69
Description:
Sleepy.Hollow.1999.BRRip.XviD.B4ND1T69



Director: Tim Burton
Writers: Washington Irving (story "The Legend of Sleepy Hollow"), Kevin Yagher (screen story)
Stars: Johnny Depp, Christina Ricci, Miranda Richardson

Plot/Story:
Ichabod Crane is sent to Sleepy Hollow to investigate the decapitations of three people, with the culprit being the legendary apparition, The Headless Horseman.

General
Complete name               : Sleepy.Hollow.1999.BRRip.XviD.B4ND1T69.avi
Format                      : AVI
Format/Info                 : Audio Video Interleave
File size                   : 1.26 GiB
Duration                    : 1 h 45 min
Overall bit rate            : 1 714 kb/s
Subtitles                   : Yes...Included(HI)

Video
ID                          : 0
Format                      : MPEG-4 Visual
Format profile              : Advanced [email protected]
Format settings, BVOP       : 2
Format settings, QPel       : No
Format settings, GMC        : No warppoints
Format settings, Matrix     : Default (H.263)
Codec ID                    : XVID
Codec ID/Hint               : XviD
Duration                    : 1 h 45 min
Bit rate                    : 1 573 kb/s
Width                       : 720 pixels
Height                      : 400 pixels
Display aspect ratio        : 16:9
Frame rate                  : 24.390 FPS
Color space                 : YUV
Chroma subsampling          : 4:2:0
Bit depth                   : 8 bits
Scan type                   : Progressive
Compression mode            : Lossy
Bits/(Pixel*Frame)          : 0.224
Stream size                 : 1.16 GiB (92%)
Writing library             : XviD 64

Audio
ID                          : 1
Format                      : MPEG Audio
Format version              : Version 1
Format profile              : Layer 3
Codec ID                    : 55
Codec ID/Hint               : MP3
Duration                    : 1 h 45 min
Bit rate mode               : Constant
Bit rate                    : 128 kb/s
Channel(s)                  : 2 channels
Sampling rate               : 48.0 kHz
Compression mode            : Lossy
Stream size                 : 96.4 MiB (7%)
Alignment                   : Aligned on interleaves
Interleave, duration        : 24  ms (0.59 video frame)

Screenshots:










Please Seed For As Long As Possible
Or At Least 1:1 Ratio...Thanks
Enjoy Peeps

Category:Movies > XviD
Lang:English  English
Total Size:1.26 GB
Info Hash:a03ff108315c5205413767f1fa695dbf83187762
Added By:B4ND1T69
Date Added:17-10-2020 20:47:02

Files

File List: 
 File Size
Downloaded from 1337x.txt61.00 B
Downloaded from ETTV.txt55.00 B
Downloaded from newkatcr.co.txt139.00 B
Downloaded from ProStyleX.txt54.00 B
Sleepy.Hollow.1999.BRRip.XviD.B4ND1T69.avi1.26 GB
Sleepy.Hollow.1999.BRRip.XviD.B4ND1T69.srt61.76 kB



Comments

There are currently no comments. Be the first one to write something !