TGx mirzapur 2020 xxx mirzapur s02 star trek discovery s03e02 ettv The Real Housewives of Orange County S15E02 The Trial of the Chicago 7 2020 supernatural  The Walking Dead World Beyond S01E03 wwe Love and Monsters 2020 hindi  yts hindi 2020 0 etrg evo borat 2 the walking dead  Next mirzapur season 2 mirzapur web series Mirzapur season 1 tenet Mirjapur 2067 2020 Supernatural S15E16 mulan 2020 marvel week The Outpost S03E03 Mirzapur s2 Married at First Sight S11E15 mirzapur2 Hubie Halloween 2020 Borat Subsequent Moviefilm 2020 Big Brother S22E33 The Conners S03E01 The Goldbergs S08E01 Mirza mirzapur 2 star trek the boys ddr The Witches 2020 The Amazing Race s32e02 Tenet 2020 borat Honest Thief 2020 etmovies star trek discovery Big Brother S22E34 Helstrom S01E01 Unhinged 2020 scam 1992 The Wolf of Snow Hollow 2020 archer Star Trek Discovery S03E01 archer s11E07 Mirzapur The New Mutants 2020 amazon prime  ethd Greenland 2020 the witches malayalam rq.mp4 mirzapur season2 Mirzaapur fargo mirzapur season After We Collided 2020 
Warning! Use a VPN When Downloading Torrents!
Your IP Address is 35.170.78.142. Location United States
Your Internet Provider can see when you download torrents! Hide your IP Address with a VPN
ETTV warns: You should use VPN to hide your torrenting. HIDE ME NOW
ETTV Recommended TV Shows
Life.Below.Zero.Next.Generation.S01E08.Trail.Breakers.WEB.h264-CAFFEiNE torrent
Big.Brother.US.S22E34.WEB.h264-BAE torrent
Supernatural.S15E16.WEB.h264-BAE torrent
The.Daily.Show.2020.10.22.WEB.h264-BAE torrent
The.Outpost.S03E03.WEB.h264-BAE torrent
The.Walking.Dead.World.Beyond.S01E04.WEBRip.x264-ION10 torrent

ETTV Recommended SD
Over.the.Moon.2020.HDRip.XviD.AC3-EVO torrent
The.Place.of.No.Words.2020.HDRip.XviD.AC3-EVO torrent
The.Jack.In.The.Box.2020.BDRip.XviD.AC3-EVO torrent
On The Rocks.2020.HDRip.XviD.AC3-EVO torrent

ETTV Recommended HD
Rush Hour 3 2007 BluRay 1080p DTS AC3 x264-3Li torrent
The.Witches.2020.1080p.WEB-DL.H264.AC3-EVO torrent
Once.Upon.a.Snowman.2020.DSNYP.1080p.WEBRip.X264.Atmos-EVO torrent
Nomis (2018) Night Hunter. BluRay 1080p.H264 Ita Eng AC3 5.1 Sub Ita Eng MIRCrew torrent

ETTV Recommended UHD
Back.to.the.Future.1985.MULTi.2160p.Bluray.HDR.Atmos.7.1.HEVC-DDR.mkv torrent
Back.to.the.Future.Part.II.1989.MULTi.2160p.Bluray.HDR.Atmos.7.1.HEVC-DDR.mkv torrent
The.Boys.in.the.Band.2020.4K.MULTI.2160p.HDR.WEB.DDP.5.1.HEVC-DDR.mkv torrent
The.Binding.2020.4K.MULTI.2160p.SDR.WEB.DDP.5.1.HEVC-DDR.mkv torrent
Secret.Society.of.Second.Born.Royals.2020.MULTI.2160p.HDR.WEB.EAC3.5.1.HEVC-DDR.mkv torrent
Back.to.the.Future.Part.III.1990.MULTi.2160p.Bluray.HDR.HEVC.Atmos.7.1.HEVC-DDR.mkv torrent

ETTV Recommended Cam
The.Broken.Hearts.Gallery.2020.HDCAM.x264.LLG torrent
The Secrets We Keep 2020 HDCAM-C1NEM4 torrent

ETTV Recommended Foreign
Deadly Exchange (2017) 720p WEB-DL x264 Eng Subs [Dual Audio] [Hindi DD 2.0 - English 2.0] Exclusive By -=!Dr.STAR!=- torrent
In Her Line of Fire (2006) 720p WEB-DL x264 Eng Subs [Dual Audio] [Hindi DD 2.0 - English 2.0] Exclusive By -=!Dr.STAR!=- torrent
Mirzapur 2020 S02  E01-10 x264 720p Esub AmaZoNe Hindi GOPI SAHI torrent
Sucker Punch 2011 x264 720p Esub BluRay Dual Audio English Hindi GOPI SAHI torrent
Charlie and the Chocolate Factory 2005 x264 720p Esub BluRay Dual Audio English Hindi GOPI SAHI torrent
Rough Cut (2008) 720p BluRay x264 Eng Subs [Dual Audio] [Hindi DD 2.0 - Korean 2.0] Exclusive By -=!Dr.STAR!=- torrent

ETTV Recommended Music
Gucci Mane - So Icy Gang, Vol. 1 (2020) Mp3 320kbps [PMEDIA] ⭐️ torrent
[folk-rock, prog-rock] (2018) Tamburlaine - Say No More (1972, Reissue) [FLAC] [DarkAngie] torrent
Lazarus - Down N' Dirty (2020) (320) [DJ] torrent
VA - Christmas Rock 2020 (Mp3 320kbps) [PMEDIA] ⭐️ torrent
The Beatles - Abbey Road (1969) (2012 Vinyl 24bit-96-kHz) [FLAC] vtwin88cube torrent
Def Leppard - Hysteria (1987) (2017 LP 24bit-96kHz) [FLAC] vtwin88cube torrent


Download Torrent "After.Hours.1985.HDRip.XviD.B4ND1T69"

IMDB Details
Description:

An ordinary word processor has the worst night of his life after he agrees to visit a girl in Soho who he met that evening at a coffee shop.

Genre:

Comedy, Crime, Drama, Thriller

Download Torrent (Magnet)
Download Torrent (File)

Seeds: 83
Leechers: 59

Uploaded by:
B4ND1T69


Category:
Movies > XviD


Details
Title:After.Hours.1985.HDRip.XviD.B4ND1T69
Description:
After.Hours.1985.HDRip.XviD.B4ND1T69



Director: Martin Scorsese
Writer: Joseph Minion
Stars: Griffin Dunne, Rosanna Arquette, Verna Bloom

Plot/Story:
An ordinary word processor has the worst night of his life after he agrees to visit a girl in Soho who he met that evening at a coffee shop.

General
Complete name               : After.Hours.1985.HDRip.XviD.B4ND1T69.avi
Format                      : AVI
Format/Info                 : Audio Video Interleave
File size                   : 839 MiB
Duration                    : 1 h 37 min
Overall bit rate            : 1 208 kb/s
Subtitles                   : Yes...Included(HI)

Video
ID                          : 0
Format                      : MPEG-4 Visual
Format profile              : Advanced [email protected]
Format settings, BVOP       : 2
Format settings, QPel       : No
Format settings, GMC        : No warppoints
Format settings, Matrix     : Default (H.263)
Codec ID                    : XVID
Codec ID/Hint               : XviD
Duration                    : 1 h 37 min
Bit rate                    : 1 067 kb/s
Width                       : 720 pixels
Height                      : 400 pixels
Display aspect ratio        : 16:9
Frame rate                  : 23.976 (24000/1001) FPS
Color space                 : YUV
Chroma subsampling          : 4:2:0
Bit depth                   : 8 bits
Scan type                   : Progressive
Compression mode            : Lossy
Bits/(Pixel*Frame)          : 0.155
Stream size                 : 741 MiB (88%)
Writing library             : XviD 64

Audio
ID                          : 1
Format                      : MPEG Audio
Format version              : Version 1
Format profile              : Layer 3
Codec ID                    : 55
Codec ID/Hint               : MP3
Duration                    : 1 h 37 min
Bit rate mode               : Constant
Bit rate                    : 128 kb/s
Channel(s)                  : 2 channels
Sampling rate               : 48.0 kHz
Compression mode            : Lossy
Stream size                 : 88.9 MiB (11%)
Alignment                   : Aligned on interleaves
Interleave, duration        : 24  ms (0.58 video frame)

Screenshots:










Please Seed For As Long As Possible
Or At Least 1:1 Ratio...Thanks
Enjoy Peeps

Category:Movies > XviD
Lang:English  English
Total Size:839 MB
Info Hash:ac7c75c8ef85b15e92219e509712c6bd197de18d
Added By:B4ND1T69
Date Added:17-10-2020 20:25:18

Files

File List: 
 File Size
After.Hours.1985.HDRip.XviD.B4ND1T69.avi839 MB
After.Hours.1985.HDRip.XviD.B4ND1T69.srt84.38 kB
Downloaded from 1337x.txt61.00 B
Downloaded from ETTV.txt55.00 B
Downloaded from newkatcr.co.txt139.00 B
Downloaded from ProStyleX.txt54.00 B



Comments

There are currently no comments. Be the first one to write something !