TGx mirzapur 2020 xxx mirzapur s02 star trek discovery s03e02 ettv The Real Housewives of Orange County S15E02 The Trial of the Chicago 7 2020 supernatural  The Walking Dead World Beyond S01E03 wwe Love and Monsters 2020 hindi  yts hindi 2020 0 etrg evo borat 2 the walking dead  Next mirzapur season 2 mirzapur web series Mirzapur season 1 tenet Mirjapur 2067 2020 Supernatural S15E16 mulan 2020 marvel week The Outpost S03E03 Mirzapur s2 Married at First Sight S11E15 mirzapur2 Hubie Halloween 2020 Borat Subsequent Moviefilm 2020 Big Brother S22E33 The Conners S03E01 The Goldbergs S08E01 Mirza mirzapur 2 star trek the boys ddr The Witches 2020 The Amazing Race s32e02 Tenet 2020 borat Honest Thief 2020 etmovies star trek discovery Big Brother S22E34 Helstrom S01E01 Unhinged 2020 scam 1992 The Wolf of Snow Hollow 2020 archer Star Trek Discovery S03E01 archer s11E07 Mirzapur The New Mutants 2020 amazon prime  ethd Greenland 2020 the witches malayalam rq.mp4 mirzapur season2 Mirzaapur fargo mirzapur season After We Collided 2020 
Warning! Use a VPN When Downloading Torrents!
Your IP Address is 35.170.78.142. Location United States
Your Internet Provider can see when you download torrents! Hide your IP Address with a VPN
ETTV warns: You should use VPN to hide your torrenting. HIDE ME NOW
ETTV Recommended TV Shows
Life.Below.Zero.Next.Generation.S01E08.Trail.Breakers.WEB.h264-CAFFEiNE torrent
Big.Brother.US.S22E34.WEB.h264-BAE torrent
Supernatural.S15E16.WEB.h264-BAE torrent
The.Daily.Show.2020.10.22.WEB.h264-BAE torrent
The.Outpost.S03E03.WEB.h264-BAE torrent
The.Walking.Dead.World.Beyond.S01E04.WEBRip.x264-ION10 torrent

ETTV Recommended SD
Over.the.Moon.2020.HDRip.XviD.AC3-EVO torrent
The.Place.of.No.Words.2020.HDRip.XviD.AC3-EVO torrent
The.Jack.In.The.Box.2020.BDRip.XviD.AC3-EVO torrent
On The Rocks.2020.HDRip.XviD.AC3-EVO torrent

ETTV Recommended HD
Rush Hour 3 2007 BluRay 1080p DTS AC3 x264-3Li torrent
The.Witches.2020.1080p.WEB-DL.H264.AC3-EVO torrent
Once.Upon.a.Snowman.2020.DSNYP.1080p.WEBRip.X264.Atmos-EVO torrent
Nomis (2018) Night Hunter. BluRay 1080p.H264 Ita Eng AC3 5.1 Sub Ita Eng MIRCrew torrent

ETTV Recommended UHD
Back.to.the.Future.1985.MULTi.2160p.Bluray.HDR.Atmos.7.1.HEVC-DDR.mkv torrent
Back.to.the.Future.Part.II.1989.MULTi.2160p.Bluray.HDR.Atmos.7.1.HEVC-DDR.mkv torrent
The.Boys.in.the.Band.2020.4K.MULTI.2160p.HDR.WEB.DDP.5.1.HEVC-DDR.mkv torrent
The.Binding.2020.4K.MULTI.2160p.SDR.WEB.DDP.5.1.HEVC-DDR.mkv torrent
Secret.Society.of.Second.Born.Royals.2020.MULTI.2160p.HDR.WEB.EAC3.5.1.HEVC-DDR.mkv torrent
Back.to.the.Future.Part.III.1990.MULTi.2160p.Bluray.HDR.HEVC.Atmos.7.1.HEVC-DDR.mkv torrent

ETTV Recommended Cam
The.Broken.Hearts.Gallery.2020.HDCAM.x264.LLG torrent
The Secrets We Keep 2020 HDCAM-C1NEM4 torrent

ETTV Recommended Foreign
Deadly Exchange (2017) 720p WEB-DL x264 Eng Subs [Dual Audio] [Hindi DD 2.0 - English 2.0] Exclusive By -=!Dr.STAR!=- torrent
In Her Line of Fire (2006) 720p WEB-DL x264 Eng Subs [Dual Audio] [Hindi DD 2.0 - English 2.0] Exclusive By -=!Dr.STAR!=- torrent
Mirzapur 2020 S02  E01-10 x264 720p Esub AmaZoNe Hindi GOPI SAHI torrent
Sucker Punch 2011 x264 720p Esub BluRay Dual Audio English Hindi GOPI SAHI torrent
Charlie and the Chocolate Factory 2005 x264 720p Esub BluRay Dual Audio English Hindi GOPI SAHI torrent
Rough Cut (2008) 720p BluRay x264 Eng Subs [Dual Audio] [Hindi DD 2.0 - Korean 2.0] Exclusive By -=!Dr.STAR!=- torrent

ETTV Recommended Music
Gucci Mane - So Icy Gang, Vol. 1 (2020) Mp3 320kbps [PMEDIA] ⭐️ torrent
[folk-rock, prog-rock] (2018) Tamburlaine - Say No More (1972, Reissue) [FLAC] [DarkAngie] torrent
Lazarus - Down N' Dirty (2020) (320) [DJ] torrent
VA - Christmas Rock 2020 (Mp3 320kbps) [PMEDIA] ⭐️ torrent
The Beatles - Abbey Road (1969) (2012 Vinyl 24bit-96-kHz) [FLAC] vtwin88cube torrent
Def Leppard - Hysteria (1987) (2017 LP 24bit-96kHz) [FLAC] vtwin88cube torrent


Download Torrent "Fargo (1996) ITA-ENG Ac3 5.1 BDRip 1080p H264 [ArMor]"

IMDB Details
Description:

Jerry Lundegaard's inept crime falls apart due to his and his henchmen's bungling and the persistent police work of the quite pregnant Marge Gunderson.

Genre:

Crime, Drama, Thriller

Download Torrent (Magnet)
Download Torrent (File)

Seeds: 75
Leechers: 34

Uploaded by:
ArMor


Category:
Movies > HD 1080p (Great for large screens)


Details
Title:Fargo (1996) ITA-ENG Ac3 5.1 BDRip 1080p H264 [ArMor]
Description:







Regista: Joel Coen, Ethan Coen
Genere: Commedia, Poliziesco, Thriller
Anno: 1996
Paese: Gran Bretagna, USA
Durata: 97 min
Distribuzione: U.I.P.



Fargo è un thriller americano del 1996. Siamo nell'inverno del 1987 e Jerry Lundegaard (William H. Macy), direttore commerciale di una concessionaria di automobili di Minneapolis, ha un disperato bisogno di soldi per pagare un debito di 320.000 dollari. L'esorbitante cifra, è stata accumulata a causa di una serie di malriusciti imbrogli finanziari messi in atto dal mediocre impiegato. Jerry si reca quindi a Fargo, North Dakota, dove assume due piccoli criminali, Gaear Grimsrud (Peter Stormare) e Carl Showalter (Steve Buscemi). Carl è un tipo isterico e nervoso, mentre Grear, taciturno e impassibile, è una figura dall’aspetto poco rassicurante affetto da una evidente psicopatia. Il piano di Jerry è quello di inscenare il rapimento di sua moglie, Jean, ed estorcere un riscatto di un milione di dollari dal ricco suocero e capo della concessionaria, Wade Gustafson.

Jerry Lundegaard's inept crime falls apart due to his and his henchmen's bungling and the persistent police work of the quite pregnant Marge Gunderson.

 











General
Unique ID                                : 182545785395773606874589597524236700835 (0x89550A182F798BACA2E1E00AE7BC0CA3)
Complete name                            : Fargo (1996) ITA-ENG Ac3 5.1 BDRip 1080p H264 [ArMor].mkv
Format                                   : Matroska
Format version                           : Version 4
File size                                : 5.07 GiB
Duration                                 : 1 h 38 min
Overall bit rate                         : 7 381 kb/s
Encoded date                             : UTC 2020-10-14 22:39:06
Writing application                      : mkvmerge v15.0.0 ('Duel with the Devil') 64-bit
Writing library                          : libebml v1.3.5 + libmatroska v1.4.5 / Lavf58.29.100

Video
ID                                       : 1
Format                                   : AVC
Format/Info                              : Advanced Video Codec
Format profile                           : [email protected]
Format settings                          : CABAC / 4 Ref Frames
Format settings, CABAC                   : Yes
Format settings, Reference frames        : 4 frames
Codec ID                                 : V_MPEG4/ISO/AVC
Duration                                 : 1 h 38 min
Bit rate                                 : 6 483 kb/s
Width                                    : 1 920 pixels
Height                                   : 1 036 pixels
Display aspect ratio                     : 1.85:1
Frame rate mode                          : Constant
Frame rate                               : 23.976 (24000/1001) FPS
Color space                              : YUV
Chroma subsampling                       : 4:2:0
Bit depth                                : 8 bits
Scan type                                : Progressive
Bits/(Pixel*Frame)                       : 0.136
Stream size                              : 4.45 GiB (88%)
Writing library                          : x264 core 157 r2935 545de2f
Encoding settings                        : cabac=1 / ref=2 / deblock=1:0:0 / analyse=0x1:0x111 / me=hex / subme=6 / psy=1 / psy_rd=1.00:0.00 / mixed_ref=1 / me_range=16 / chroma_me=1 / trellis=1 / 8x8dct=0 / cqm=0 / deadzone=21,11 / fast_pskip=1 / chroma_qp_offset=-2 / threads=18 / lookahead_threads=3 / sliced_threads=0 / nr=0 / decimate=1 / interlaced=0 / bluray_compat=0 / constrained_intra=0 / bframes=3 / b_pyramid=2 / b_adapt=1 / b_bias=0 / direct=1 / weightb=1 / open_gop=0 / weightp=1 / keyint=240 / keyint_min=24 / scenecut=40 / intra_refresh=0 / rc_lookahead=30 / rc=crf / mbtree=1 / crf=21.0 / qcomp=0.60 / qpmin=0 / qpmax=69 / qpstep=4 / vbv_maxrate=20000 / vbv_bufsize=25000 / crf_max=0.0 / nal_hrd=none / filler=0 / ip_ratio=1.40 / aq=1:1.00
Default                                  : Yes
Forced                                   : No
Color range                              : Limited
Color primaries                          : BT.709
Transfer characteristics                 : BT.709
Matrix coefficients                      : BT.709

Audio #1
ID                                       : 2
Format                                   : AC-3
Format/Info                              : Audio Coding 3
Commercial name                          : Dolby Digital
Codec ID                                 : A_AC3
Duration                                 : 1 h 38 min
Bit rate mode                            : Constant
Bit rate                                 : 448 kb/s
Channel(s)                               : 6 channels
Channel layout                           : L R C LFE Ls Rs
Sampling rate                            : 48.0 kHz
Frame rate                               : 31.250 FPS (1536 SPF)
Compression mode                         : Lossy
Stream size                              : 315 MiB (6%)
Title                                    : DTS
Language                                 : Italian
Service kind                             : Complete Main
Default                                  : Yes
Forced                                   : No

Audio #2
ID                                       : 3
Format                                   : AC-3
Format/Info                              : Audio Coding 3
Commercial name                          : Dolby Digital
Codec ID                                 : A_AC3
Duration                                 : 1 h 38 min
Bit rate mode                            : Constant
Bit rate                                 : 448 kb/s
Channel(s)                               : 6 channels
Channel layout                           : L R C LFE Ls Rs
Sampling rate                            : 48.0 kHz
Frame rate                               : 31.250 FPS (1536 SPF)
Compression mode                         : Lossy
Stream size                              : 315 MiB (6%)
Title                                    : DTS
Language                                 : English
Service kind                             : Complete Main
Default                                  : No
Forced                                   : No


Category:Movies > HD 1080p
Lang:Italian  Italian
Total Size:5.07 GB
Info Hash:3e5ee99429744014e73662c71f5909d2ffb83f05
Added By:ArMor
Date Added:16-10-2020 20:55:34

  

Files

File List: 
 File Size
dthj4sw645725i75ik.jpg243.01 kB
Fargo (1996) ITA-ENG Ac3 5.1 BDRip 1080p H264 [ArMor].mkv5.07 GB
Fargo.1996.ITA-ENG.Bluray.1080p_ita.srt87.78 kB
Fargo.1996.ITA-ENG.Bluray.1080p_ita_forced.srt1.09 kB



Comments

There are currently no comments. Be the first one to write something !