Supernatural supernatural s15e15 Alone 2020 Next S01E03 Tenet etmovies Hubie Halloween 2020 evo The Wolf of Snow Hollow 2020 scam 1992 The Walking Dead World Beyond S01E02 the walking dead The War with Grandpa 2020 fargo Enola Holmes 2020 Greenland 2020 Helstrom S01E05 Love and Monsters 2020 Tenet 2020 love and monsters Secret Society of Second Born Royals 2020 2067 2020 Fargo S04E05 Star Trek Discovery S03E01 Star Trek Discovery Warrior S02E03 Black Box 2020 ettv Saturday Night Live S46E03 Helstrom S01E01 yts the boys etrg warrior Honest Thief 2020 Xxx Last Week Tonight Kajillionaire 2020 Ava 2020 The Doorman 2020 The Outpost 2020 rq.mp4 Helstrom S01E03 Helstrom S01E04 neXt s01e02 The Walking Dead World Beyond S01E03 family guy FEAR THE WALKING DEAD Fear the Walking Dead S06E01 The Trial of the Chicago 7 2020 helstrom Lovecraft Country ddr After We Collided 2020 top gear Last Week Tonight with John Oliver S07E26 ethd American Pie Presents Girls Rules 2020 Books of Blood 2020 Helstrom S01E02 Hindi Unhinged 2020 next motogp Mulan 2020 Lovecraft Country S01E10 fear the walking dead s06e02 Pandora S02E03 2160p The New Mutants 2020 ufc 
Warning! Use a VPN When Downloading Torrents!
Your IP Address is 3.238.4.24. Location United States
Your Internet Provider can see when you download torrents! Hide your IP Address with a VPN
ETTV warns: You should use VPN to hide your torrenting. HIDE ME NOW
ETTV Recommended TV Shows
Supernatural.S15E15.WEB.h264-BAE torrent
The.Walking.Dead.World.Beyond.S01E03.WEB.h264-BAE torrent
Warrior.S02E03.WEBRip.x264-ION10 torrent
The.Spanish.Princess.S02E02.WEBRip.x264-ION10 torrent
The.Good.Lord.Bird.S01E03.WEBRip.x264-ION10 torrent
Saturday.Night.Live.S46E03.Issa.Rae.WEB.h264-WEBTUBE torrent

ETTV Recommended SD
Friendsgiving.2020.DVDRip.XviD.AC3-EVO torrent
The.Secrets.We.Keep.2020.HDRip.XviD.AC3-EVO torrent
Love.and.Monsters.2020.HDRip.XviD.AC3-EVO torrent
Clays.Redemption.2020.HDRip.XviD.AC3-EVO torrent

ETTV Recommended HD
The Chronicles Of Narnia Trilogy - Family Fantasy 2005-2010 Eng Subs 1080p [H264-mp4] torrent
Breaking Surface (2020) ITA-AC3 5.1 WEBDL 1080p H264 - L@Z59 - iDN CreW.mkv torrent
Asterix & Obelix Mission Cleopatre 2002 BluRay 1080p DTS AC3 x264-3Li torrent
Asterix at The Olympic Games 2008 BluRay 1080p DTS AC3 x264-3Li torrent

ETTV Recommended UHD
Back.to.the.Future.1985.MULTi.2160p.Bluray.HDR.Atmos.7.1.HEVC-DDR.mkv torrent
Back.to.the.Future.Part.II.1989.MULTi.2160p.Bluray.HDR.Atmos.7.1.HEVC-DDR.mkv torrent
The.Boys.in.the.Band.2020.4K.MULTI.2160p.HDR.WEB.DDP.5.1.HEVC-DDR.mkv torrent
The.Binding.2020.4K.MULTI.2160p.SDR.WEB.DDP.5.1.HEVC-DDR.mkv torrent
Secret.Society.of.Second.Born.Royals.2020.MULTI.2160p.HDR.WEB.EAC3.5.1.HEVC-DDR.mkv torrent
Back.to.the.Future.Part.III.1990.MULTi.2160p.Bluray.HDR.HEVC.Atmos.7.1.HEVC-DDR.mkv torrent

ETTV Recommended Cam
The.Broken.Hearts.Gallery.2020.HDCAM.x264.LLG torrent
The Secrets We Keep 2020 HDCAM-C1NEM4 torrent

ETTV Recommended Foreign
The Devil's in the Details (2013) 720p BluRay x264 Eng Subs [Dual Audio] [Hindi DD 2.0 - English 5.1] Exclusive By -=!Dr.STAR!=- torrent
The Man Who Was Thursday (2016) UNCUT 720p WEBRip x264 Eng Subs [Dual Audio] [Hindi DD 2.0 - English 2.0] Exclusive By -=!Dr.STAR!=- torrent
Deadly Exchange (2017) 720p WEB-DL x264 Eng Subs [Dual Audio] [Hindi DD 2.0 - English 2.0] Exclusive By -=!Dr.STAR!=- torrent
Ray 2004 x264 720p Esub BluRay Dual Audio English Hindi GOPI SAHI torrent
BlacKkKlansman 2018 x264 720p Esub BluRay Dual Audio English Hindi GOPI SAHI torrent
Paddington Logy x264 720p Dual Audio English Hindi GOPI SAHI torrent

ETTV Recommended Music
PARTYNEXTDOOR - PARTYPACK (2020) Mp3 320kbps [PMEDIA] ⭐️ torrent
Gucci Mane - So Icy Gang, Vol. 1 (2020) Mp3 320kbps [PMEDIA] ⭐️ torrent
[folk-rock, prog-rock] (2018) Tamburlaine - Say No More (1972, Reissue) [FLAC] [DarkAngie] torrent
Suede - Singles (2003) [FLAC] vtwin88cube torrent
VA - Vocal Trance Classics Top 40 (2017) [FLAC] [DJ] torrent
Eagles - Hotel California YERAYCITO MASTER SERIES SE torrent


Download Torrent "Dean (2016) ITA-ENG Ac3 5.1 WebRip 1080p H264 [ArMor]"

IMDB Details
Description:

A comedy about loss, grief, and the redemptive power of love. Dean is a NY illustrator who falls hard for an LA woman while trying to prevent his father from selling the family home in the wake of his mother's death.

Genre:

Comedy, Drama, Romance

Download Torrent (Magnet)
Download Torrent (File)

Seeds: 57
Leechers: 11

Uploaded by:
ArMor


Category:
Movies > HD 1080p (Great for large screens)


Details
Title:Dean (2016) ITA-ENG Ac3 5.1 WebRip 1080p H264 [ArMor]
Description:







Regista: Demetri Martin
Genere: Commedia, Drammatico, Sentimentale
Anno: 2016
Paese: USA
Durata: 94 min
Distribuzione: Universal Pictures



(Dean), film scritto, diretto e interpretato da Demetri Martin, vede protagonista l’impacciato disegnatore newyorkese Dean Anderson (Demetri Martin). Il ragazzo vive barcamenandosi tra i mille ostacoli che la vita ha voluto riservargli, concentrandoli apparentemente in un unico periodo. Nel giro di poco tempo, infatti, Dean perde l’adorata madre, la fidanzata Michelle (Christine Woods) lo lascia dopo che era riuscito a fargli la proposta, decidendo di sposarsi con un altro uomo poco dopo, inoltre nessuno sembra apprezzare il suo lavoro. Come se non bastasse, il padre Robert (Kevin Kline) è a pezzi per la perdita della moglie, e decide su due piedi di vendere la casa dove Dean è cresciuto, incrinando il rapporto con il ragazzo...

A comedy about loss, grief, and the redemptive power of love. Dean is a NY illustrator who falls hard for an LA woman while trying to prevent his father from selling the family home in the wake of his mother's death.

 











General
Unique ID                                : 242056441743796878470889718195137940897 (0xB61A5FFBFA38290994F9D7F119BE0DA1)
Complete name                            : Dean (2016) ITA-ENG Ac3 5.1 WebRip 1080p H264 [ArMor].mkv
Format                                   : Matroska
Format version                           : Version 4
File size                                : 2.53 GiB
Duration                                 : 1 h 33 min
Overall bit rate                         : 3 879 kb/s
Encoded date                             : UTC 2020-10-15 20:10:44
Writing application                      : mkvmerge v15.0.0 ('Duel with the Devil') 64-bit
Writing library                          : libebml v1.3.5 + libmatroska v1.4.5 / Lavf58.29.100

Video
ID                                       : 1
Format                                   : AVC
Format/Info                              : Advanced Video Codec
Format profile                           : [email protected]
Format settings                          : CABAC / 4 Ref Frames
Format settings, CABAC                   : Yes
Format settings, Reference frames        : 4 frames
Codec ID                                 : V_MPEG4/ISO/AVC
Duration                                 : 1 h 33 min
Bit rate                                 : 2 981 kb/s
Width                                    : 1 920 pixels
Height                                   : 796 pixels
Display aspect ratio                     : 2.40:1
Frame rate mode                          : Constant
Frame rate                               : 23.976 (24000/1001) FPS
Color space                              : YUV
Chroma subsampling                       : 4:2:0
Bit depth                                : 8 bits
Scan type                                : Progressive
Bits/(Pixel*Frame)                       : 0.081
Stream size                              : 1.95 GiB (77%)
Writing library                          : x264 core 157 r2935 545de2f
Encoding settings                        : cabac=1 / ref=2 / deblock=1:0:0 / analyse=0x1:0x111 / me=hex / subme=6 / psy=1 / psy_rd=1.00:0.00 / mixed_ref=1 / me_range=16 / chroma_me=1 / trellis=1 / 8x8dct=0 / cqm=0 / deadzone=21,11 / fast_pskip=1 / chroma_qp_offset=-2 / threads=18 / lookahead_threads=3 / sliced_threads=0 / nr=0 / decimate=1 / interlaced=0 / bluray_compat=0 / constrained_intra=0 / bframes=3 / b_pyramid=2 / b_adapt=1 / b_bias=0 / direct=1 / weightb=1 / open_gop=0 / weightp=1 / keyint=240 / keyint_min=24 / scenecut=40 / intra_refresh=0 / rc_lookahead=30 / rc=crf / mbtree=1 / crf=20.5 / qcomp=0.60 / qpmin=0 / qpmax=69 / qpstep=4 / vbv_maxrate=20000 / vbv_bufsize=25000 / crf_max=0.0 / nal_hrd=none / filler=0 / ip_ratio=1.40 / aq=1:1.00
Default                                  : Yes
Forced                                   : No
Color range                              : Limited
Color primaries                          : BT.709
Transfer characteristics                 : BT.709
Matrix coefficients                      : BT.709

Audio #1
ID                                       : 2
Format                                   : AC-3
Format/Info                              : Audio Coding 3
Commercial name                          : Dolby Digital
Codec ID                                 : A_AC3
Duration                                 : 1 h 33 min
Bit rate mode                            : Constant
Bit rate                                 : 448 kb/s
Channel(s)                               : 6 channels
Channel layout                           : L R C LFE Ls Rs
Sampling rate                            : 48.0 kHz
Frame rate                               : 31.250 FPS (1536 SPF)
Compression mode                         : Lossy
Stream size                              : 300 MiB (12%)
Title                                    : WEBDL EAC3
Language                                 : Italian
Service kind                             : Complete Main
Default                                  : Yes
Forced                                   : No

Audio #2
ID                                       : 3
Format                                   : AC-3
Format/Info                              : Audio Coding 3
Commercial name                          : Dolby Digital
Codec ID                                 : A_AC3
Duration                                 : 1 h 33 min
Bit rate mode                            : Constant
Bit rate                                 : 448 kb/s
Channel(s)                               : 6 channels
Channel layout                           : L R C LFE Ls Rs
Sampling rate                            : 48.0 kHz
Frame rate                               : 31.250 FPS (1536 SPF)
Compression mode                         : Lossy
Stream size                              : 300 MiB (12%)
Title                                    : EAC3
Language                                 : English
Service kind                             : Complete Main
Default                                  : No
Forced                                   : No


Category:Movies > HD 1080p
Lang:Italian  Italian
Total Size:2.54 GB
Info Hash:f32f4fbb4bfb63eae08821d03b8313d9799b1e3c
Added By:ArMor
Date Added:16-10-2020 20:49:37

  

Files

File List: 
 File Size
Dean (2016) ITA-ENG Ac3 5.1 WebRip 1080p H264 [ArMor].mkv2.53 GB
Dean.2016.ITA-ENG.WEBDL.1080p_ita.srt96.01 kB
Dean.2016.ITA-ENG.WEBDL.1080p_ita_forced.srt2.04 kB
tjyrt6us6uaq43u4.jpg94.34 kB



Comments

There are currently no comments. Be the first one to write something !