The Walking Dead World Beyond S01E03 Mirzapur Greenland 2020 hindi The Trial of the Chicago 7 2020 love and monsters  Married at First Sight S11E15 Archer s11e07 2067 2020 The Conners S03E01 scam 1992 Star Trek Discovery S03E02 neXt S01E03 hindi 2020 Helstrom S01E05 mirzapur 2 The Goldbergs S08E01 star trek discovery supernatural The Walking Dead S10E16 The Real Housewives of Orange County S15E02 After We Collided 2020 2160p The Doorman 2020 The New Mutants 2020 rq.mp4 the witches The Wolf of Snow Hollow 2020 Big Brother S22E33 Borat  etrg Star Trek Discovery S03E01 Fear the Walking Dead S06E02 Borat Subsequent Moviefilm 2020 the boys Helstrom S01E01 The Amazing Race S32E02 AEW The Goldbergs s08e02 0 Love and Monsters 2020 Honest Thief 2020 ettv trickster Malayalam  etmovies ddr Unhinged  wwe  tgx Hubie Halloween 2020 tenet the walking dead yts xxx  warrior The Witches 2020 Mulan 2020 fargo Next Helstrom S01E03 marvel week Tenet 2020 ARCHER Fargo S04E05 Lovecraft Country S01E10 Helstrom S01E02 star trek fear the walking dead The Bachelorette S16E02 Unhinged 2020 evo ethd 
Warning! Use a VPN When Downloading Torrents!
Your IP Address is 34.200.226.179. Location United States
Your Internet Provider can see when you download torrents! Hide your IP Address with a VPN
ETTV warns: You should use VPN to hide your torrenting. HIDE ME NOW
ETTV Recommended TV Shows
The.Third.Day.S01E06.WEBRip.x264-ION10 torrent
Space.Disasters.S01E01.First.Generation.WEB.h264-CAFFEiNE torrent
Life.Below.Zero.S14E08.Blood.Lines.WEB.h264-CAFFEiNE torrent
The.Real.Housewives.of.Orange.County.S15E02.Tequila.Truth.Serum.HDTV.x264-CRiMSON torrent
Trickster.2020.S01E03.WEBRip.x264-BAE torrent
Life.Below.Zero.Next.Generation.S01E08.Trail.Breakers.WEB.h264-CAFFEiNE torrent

ETTV Recommended SD
The.Witches.2020.HDRip.XviD.AC3-EVO torrent
Forever.First.Love.2020.HDRip.XviD.AC3-EVO torrent
Rebecca.2020.HDRip.XviD.AC3-EVO torrent
Blue.Ridge.2020.HDRip.XViD.AC3-EVO torrent

ETTV Recommended HD
Rush Hour 3 2007 BluRay 1080p DTS AC3 x264-3Li torrent
3022 (2019) ITA-AC3 WEBDL 1080p H264 - L@Z59 - iDN CreW.mkv torrent
The.Witches.2020.1080p.WEB-DL.H264.AC3-EVO torrent
Rush Hour 2 2001 BluRay 1080p DTS AC3 x264-3Li torrent

ETTV Recommended UHD
Back.to.the.Future.1985.MULTi.2160p.Bluray.HDR.Atmos.7.1.HEVC-DDR.mkv torrent
Back.to.the.Future.Part.II.1989.MULTi.2160p.Bluray.HDR.Atmos.7.1.HEVC-DDR.mkv torrent
The.Boys.in.the.Band.2020.4K.MULTI.2160p.HDR.WEB.DDP.5.1.HEVC-DDR.mkv torrent
The.Binding.2020.4K.MULTI.2160p.SDR.WEB.DDP.5.1.HEVC-DDR.mkv torrent
Secret.Society.of.Second.Born.Royals.2020.MULTI.2160p.HDR.WEB.EAC3.5.1.HEVC-DDR.mkv torrent
Back.to.the.Future.Part.III.1990.MULTi.2160p.Bluray.HDR.HEVC.Atmos.7.1.HEVC-DDR.mkv torrent

ETTV Recommended Cam
The.Broken.Hearts.Gallery.2020.HDCAM.x264.LLG torrent
The Secrets We Keep 2020 HDCAM-C1NEM4 torrent

ETTV Recommended Foreign
The Man Who Was Thursday (2016) UNCUT 720p WEBRip x264 Eng Subs [Dual Audio] [Hindi DD 2.0 - English 2.0] Exclusive By -=!Dr.STAR!=- torrent
Deadly Exchange (2017) 720p WEB-DL x264 Eng Subs [Dual Audio] [Hindi DD 2.0 - English 2.0] Exclusive By -=!Dr.STAR!=- torrent
Anna Karenina 2012 x264 720p Esub BluRay Dual Audio English Hindi GOPI SAHI torrent
Exodus Gods and Kings 2014 x264 720p Esub BluRay Dual Audio English Hindi GOPI SAHI torrent
The Adventures of Rocky Bullwinkle 2000 x264 720p Esub BluRay Dual Audio English Hindi GOPI SAHI torrent
In Her Line of Fire (2006) 720p WEB-DL x264 Eng Subs [Dual Audio] [Hindi DD 2.0 - English 2.0] Exclusive By -=!Dr.STAR!=- torrent

ETTV Recommended Music
Gucci Mane - So Icy Gang, Vol. 1 (2020) Mp3 320kbps [PMEDIA] ⭐️ torrent
[folk-rock, prog-rock] (2018) Tamburlaine - Say No More (1972, Reissue) [FLAC] [DarkAngie] torrent
Lazarus - Down N' Dirty (2020) (320) [DJ] torrent
VA - Christmas Rock 2020 (Mp3 320kbps) [PMEDIA] ⭐️ torrent
Motley Crue - Dr. Feelgood (1989) (Vinyl 24bit-96kHz) [FLAC] vtwin88cube torrent
The Who - Quadrophenia (1973) (Vinyl 24bit-96kHz) [FLAC] vtwin88cube torrent


Download Torrent "Suede - Singles (2003) [FLAC] vtwin88cube"

IMDB Details
Description:

N/A

Genre:

N/A

Download Torrent (Magnet)
Download Torrent (File)

Seeds: 106
Leechers: 41

Uploaded by:
vtwin88cube


Category:
Music > FLAC


Details
Title:Suede - Singles (2003) [FLAC] vtwin88cube
Description:
Suede
Singles (2003)


allmusic.com...

Suede kick-started the Brit-pop revolution of the '90s, taking English indie pop/rock music away from the swirling layers of shoegaze and dance-pop fusions of Madchester, and reinstating such conventions of British pop as mystique and the three-minute single. Before the band had even released a single, the U.K. weekly music press was proclaiming them the "Best New Band in Britain," but Suede managed to survive their heavy hype due to the songwriting team of vocalist Brett Anderson and guitarist Bernard Butler.


FLAC LOSSLESS 16bit-44kHz
Dynamic Range 7

Sony 513604 2

foobar2000 1.4.3 / Dynamic Range Meter 1.1.1
log date: 2020-10-14 20:11:24

--------------------------------------------------------------------------------
Analyzed: Suede / Singles
--------------------------------------------------------------------------------

DR         Peak         RMS     Duration Track
--------------------------------------------------------------------------------
DR7       -0.10 dB    -9.05 dB      3:34 01-Beautiful Ones
DR6       -0.10 dB    -8.30 dB      3:10 02-Animal Nitrate
DR8       -0.10 dB    -9.66 dB      3:48 03-Trash
DR8       -0.10 dB    -9.24 dB      3:03 04-Metal Mickey
DR6       -0.10 dB    -7.57 dB      3:40 05-So Young
DR6       -0.10 dB    -8.27 dB      4:17 06-The Wild Ones
DR6       -0.27 dB    -7.43 dB      3:44 07-Obsessions
DR6       -0.10 dB    -7.68 dB      3:14 08-Filmstar
DR6       -0.10 dB    -7.50 dB      3:59 09-Can't Get Enough
DR6       -0.10 dB    -7.93 dB      4:27 10-Everything Will Flow
DR7       -0.10 dB    -9.46 dB      3:55 11-Stay Together
DR8       -0.10 dB    -8.70 dB      3:37 12-Love The Way You Love
DR7       -0.10 dB    -9.69 dB      3:44 13-The Drowners
DR8       -0.10 dB    -9.70 dB      4:37 14-New Generation
DR7       -0.10 dB    -8.07 dB      3:15 15-Lazy
DR7       -0.10 dB    -8.76 dB      4:07 16-She's In Fashion
DR8       -0.10 dB    -9.48 dB      3:06 17-Attitude
DR6       -0.10 dB    -7.41 dB      4:25 18-Electricity
DR7       -0.10 dB    -8.65 dB      3:56 19-We Are The Pigs
DR7       -0.10 dB    -9.37 dB      2:58 20-Positivity
DR9       -0.10 dB   -10.96 dB      4:00 21-Saturday Night

Number of tracks:  21
Official DR value: DR7

Samplerate:        44100 Hz
Channels:          2
Bits per sample:   16
Bitrate:           1042 kbps
Codec:             FLAC




Support the artists...
buy it if you like it!

Thanks for Seeding!
Cheers! ;)

Category:Music > FLAC
Lang:Unknown/NA
Total Size:623 MB
Info Hash:f69bcdb9c72f88abfb5eb386c553c0c32084e305
Added By:vtwin88cube
Date Added:16-10-2020 07:11:19

  

Files

File List: 
 File Size
00.-Suede - Singles.m3u489.00 B
01.-Beautiful Ones.flac29 MB
02.-Animal Nitrate.flac26 MB
03.-Trash.flac31 MB
04.-Metal Mickey.flac25 MB
05.-So Young.flac30 MB
06.-The Wild Ones.flac33 MB
07.-Obsessions.flac31 MB
08.-Filmstar.flac27 MB
09.-Can't Get Enough.flac31 MB
10.-Everything Will Flow.flac35 MB
11.-Stay Together.flac30 MB
12.-Love The Way You Love.flac28 MB
13.-The Drowners.flac30 MB
14.-New Generation.flac36 MB
15.-Lazy.flac27 MB
16.-She's In Fashion.flac33 MB
17.-Attitude.flac21 MB
18.-Electricity.flac35 MB
19.-We Are The Pigs.flac31 MB
20.-Positivity.flac23 MB
21.-Saturday Night.flac30 MB
auCDtect.txt8.19 kB
DR7.txt1.93 kB
folder.jpg270.21 kB



Comments

There are currently no comments. Be the first one to write something !