Last Week Tonight with John Oliver S07E24 Mulan 2020 Peninsula 2020 Idhun s01e01 The Boys  Power Book II Ghost S01E04 hindi The Owners 2020 Fargo S04E02 yts The Devil All the Time 2020 ettv Power Book II Ghost S01E03 Secret Society of Second Born Royals 2020 Raised by Wolves S01E06 evo The 2nd 2020 The Comey Rule S01E01 Big Brother s22e23 wwe xxx Lost Girls and Love Hotels 2020 The New Mutants 2020 Enola Holmes 2020 The Boys S02E01 Tenet 2020 Ratched S01E01 The Comey Rule S01E02 Raised by Wolves S01E07 90 Day Fiance Happily Ever After S05E16 Raised by Wolves S01E08 Money Plane 2020 Raised by Wolves After We Collided 2020 Unhinged 2020 Nomadland 2020 Lovecraft Country S01E07 rq.mp4 The Boys S02E06 The War with Grandpa 2020 Below Deck Mediterranean S05E18 etmovies Lovecraft Country  hello Raised by Wolves S01E09 Antebellum 2020 Raised by Wolves S01E01 fargo ddr The Boys S02E05 Avengers Endgame 2019 Fargo S04E01 Last Week Tonight gunjan saxena Attack of the Unknown 2020 This IS Us Solitary 2020 Rogue 2020 Utopia S01E01 hostages ethd Hard Kill 2020 Family Guy S19E01 Joker 2019 The Babysitter Killer Queen 2020 Greenland 2020 Bill and Ted Face the Music 2020 Ava 2020 The Boys S01E01 The Third Day S01E03 etrg money heist Alone 2020 
Warning! Use a VPN When Downloading Torrents!
Your IP Address is 3.230.119.106. Location United States
Your Internet Provider can see when you download torrents! Hide your IP Address with a VPN
ETTV warns: You should use VPN to hide your torrenting. HIDE ME NOW
ETTV Recommended TV Shows
WWE Friday Night SmackDown 2020 09 18 HDTV x264-NWCHD [TJET] torrent
ITV.The.Real.Des.The.Dennis.Nilsen.Story.1080p.HDTV.x265.AAC.MVGroup.org.mkv torrent
NASCAR Xfinity Series 2020. R26. Food City 300. NBCSN torrent
I Hate Suzie 2020 S01 720p WEB-DL H264 BONE torrent
Love.Island.US.S02E23.WEB.h264-BAE torrent
Bering.Sea.Gold.S12E19.Freezer.Burn.DISC.WEB-DL.AAC2.0.x264-BOOP torrent

ETTV Recommended SD
The.Racer.2020.HDRip.XviD.AC3-EVO torrent
Tommaso.2020.BRRip.XviD.AC3-EVO torrent
Canadian.Strain.2020.HDRip.XviD.AC3-EVO torrent
Dead.2020.HDRip.XviD.AC3-EVO torrent

ETTV Recommended HD
The Fly And The Fly II - Horror 1986-1989 Eng Subs 1080p [H264-mp4] torrent
Along Came a Spider (2001) [Morgan Freeman] 1080p H264 DolbyD 5.1 ūüíé nickarad torrent
Battleship 2012 BluRay 1080p DTS AC3 x264-3Li torrent
Conan The Barbarian 2011 BluRay 1080p DTS AC3 x264-3Li torrent

ETTV Recommended UHD
The.Babysitter.Killer.Queen.2020.MULTI.2160p.HDR.WEB.EAC3.Hevc-DDR.mkv torrent
The.Devil.All.The.Time.2020.4K.MULTI.2160p.HDR.WEB.EAC3.Hevc-DDR.mkv torrent
Ghost.in.the.Shell.1995.MULTi.2160p.USA.Blu-ray.HDR.Atmos.7.1.HEVC-DDR.mkv torrent
London.Has.Fallen.2016.MULTi.2160p.BLURAY.HDR.DTS-X.7.1.HEVC-DDR.mkv torrent
Enola Holmes.2020.MULTi.2160p.HDR.WEB.DDP.5.1.HEVC-DDR.mkv torrent
The.Woman.2011.MULTi.2160p.Bluray.HDR.DTS-HDMA.5.1.HEVC-DDR.mkv torrent

ETTV Recommended Cam
The.Broken.Hearts.Gallery.2020.HDCAM.x264.LLG torrent
The Secrets We Keep 2020 HDCAM-C1NEM4 torrent

ETTV Recommended Foreign
Curse of Chucky 2013 x264 720p Esub NetFLix Dual Audio Hindi English GOPI SAHI torrent
For Greater Glory : The True Story Of Cristiada (2012) 720p BluRay x264 Eng Subs [Dual Audio] [Hindi DD 2.0 - English 5.1] Exclusive By -=!Dr.STAR!=- torrent
Alligator Alley (2013) 720p BluRay x264 [Dual Audio] [Hindi DD 2.0 - English 5.1] Exclusive By -=!Dr.STAR!=- torrent
Unkahee.2020.1080p.EROS.WEB-DL.AAC.2.0.x264-Telly torrent
Tomorrow Never Dies 1997 x264 720p Esub BluRay Dual Audio English Hindi GOPI SAHI torrent
The Grinch 2018 x264 720p Esub BluRay Dual Audio English Hindi GOPI SAHI torrent

ETTV Recommended Music
The Police - The Singles YERAYCITO MASTER SERIES XX torrent
MAX - Colour Vision (2020) Mp3 320kbps [PMEDIA] ‚≠źÔłŹ torrent
Queen II - 1974 - mp3 - 320kbps - G&U torrent
Madonna - Immaculate Collection YERAYCITO MASTER SERIES XX torrent
Bee Gees - One Night Only YERAYCITO MASTER SERIES XX torrent
[indie-rock, prog-rock] (2020) The Pineapple Thief - Versions Of The Truth [FLAC] [DarkAngie] torrent


Download Torrent "18+.The.Devil.All.the.Time.2020.HDRip.XviD.AC3.LLG"

IMDB Details
Description:

N/A

Genre:

N/A

Download Torrent (Magnet)
Download Torrent (File)

Seeds: 5
Leechers: 0

Uploaded by:
LifeLongg


Category:
Movies > XviD


Details
Title:18+.The.Devil.All.the.Time.2020.HDRip.XviD.AC3.LLG
Description:



******************************Thumbnbil:**********************




******************************Screenshots:********************

screenshot 1

screenshot 2

screenshot 3

screenshot 4

screenshot 5

screenshot 6

screenshot 7

screenshot 8

screenshot 9

screenshot 0


******************************************************

18+.The.Devil.All.the.Time.2020.HDRip.XviD.AC3.LLG.mp4
Format                                   : MPEG-4
Format profile                           : Base Media
Codec ID                                 : isom (isom/iso2/avc1/mp41)
File size                                : 1.24 GiB
Duration                                 : 2 h 18 min
Overall bit rate mode                    : Variable
Overall bit rate                         : 1 276 kb/s
Movie name                               : EVO
Writing application                      : Lavf58.29.100

Video
ID                                       : 1
Format                                   : AVC
Format/Info                              : Advanced Video Codec
Format profile¬† ¬† ¬† ¬† ¬† ¬† ¬† ¬† ¬† ¬† ¬† ¬† ¬† ¬†: [email protected]
Format settings                          : CABAC / 1 Ref Frames
Format settings, CABAC                   : Yes
Format settings, Reference frames        : 1 frame
Codec ID                                 : avc1
Codec ID/Info                            : Advanced Video Coding
Duration                                 : 2 h 18 min
Bit rate mode                            : Variable
Bit rate                                 : 889 kb/s
Maximum bit rate                         : 2 700 kb/s
Width                                    : 720 pixels
Height                                   : 302 pixels
Display aspect ratio                     : 2.40:1
Frame rate mode                          : Constant
Frame rate                               : 24.000 FPS
Color space                              : YUV
Chroma subsampling                       : 4:2:0
Bit depth                                : 8 bits
Scan type                                : Progressive
Bits/(Pixel*Frame)                       : 0.170
Stream size                              : 883 MiB (70%)
Codec configuration box                  : avcC

Audio
ID                                       : 2
Format                                   : AC-3
Format/Info                              : Audio Coding 3
Commercial name                          : Dolby Digital
Codec ID                                 : ac-3
Duration                                 : 2 h 18 min
Bit rate mode                            : Constant
Bit rate                                 : 384 kb/s
Channel(s)                               : 6 channels
Channel layout                           : L R C LFE Ls Rs
Sampling rate                            : 48.0 kHz
Frame rate                               : 31.250 FPS (1536 SPF)
Compression mode                         : Lossy
Stream size                              : 381 MiB (30%)
Title                                    : Surround
Language                                 : English
Service kind                             : Complete Main
Default                                  : Yes
Alternate group                          : 1






******************************************************** 



Category:Movies > XviD
Lang:English  English
Total Size:1.26 GB
Info Hash:5617409d9ba448bb182061a3109a04ae9753e945
Added By:LifeLongg
Date Added:16-09-2020 14:03:56

Files

File List: 
 File Size
18+.The.Devil.All.the.Time.2020.HDRip.XviD.AC3.LLG.mp41.24 GB
SAMPLE.ts25 MB



Comments

There are currently no comments. Be the first one to write something !