Raised by Wolves S01E07 evo Joker 2019 Solitary 2020 The Devil All the Time 2020 The Comey Rule S01E02 Rogue 2020 Raised by Wolves S01E01 Antebellum 2020 Welcome to Sudden Death 2020 Ava 2020 hindi Alone 2020 Raised by Wolves S01E09 Power Book II Ghost S01E04 wwe The Gentlemen 2019 The Boys S02E01 the boys Idhun s01e01 Bad Chad Customs S02E07 After We Collided 2020 The Babysitter Killer Queen 2020 ettv wentworth Enola Holmes 2020 The Boys S02E06 The Third Day S01E03 Unhinged 2020 Lovecraft Country S01E07 The Boys S02E05 The 2nd 2020 Tenet 2020 The Comey Rule S01E01 tenet yts Lost Girls and Love Hotels 2020 fargo The Boys S01E01 The War with Grandpa 2020 The New Mutants 2020 etrg Filthy Rich S01E02 Raised by Wolves Avengers Endgame 2019 Hard Kill 2020 Peninsula 2020 Knives Out 2019 etmovies Nomadland 2020 This IS Us Greenland 2020 Fargo S04E02 Raised by Wolves S01E08 Power Book II Ghost S01E03 The Owners 2020 Bill and Ted Face the Music 2020 Below Deck Mediterranean S05E18 ddr Fargo S04E01 Raised by Wolves S01E02 the 100 Attack of the Unknown 2020 ethd Wentworth S08E10 Secret Society of Second Born Royals 2020 Raised by Wolves S01E06 Mulan 2020 Money Plane 2020 Ratched S01E01 xxx rq.mp4 Utopia S01E01 
Warning! Use a VPN When Downloading Torrents!
Your IP Address is 54.237.183.249. Location United States
Your Internet Provider can see when you download torrents! Hide your IP Address with a VPN
ETTV warns: You should use VPN to hide your torrenting. HIDE ME NOW
ETTV Recommended TV Shows
WWE Friday Night SmackDown 2020 09 18 HDTV x264-NWCHD [TJET] torrent
ITV.The.Real.Des.The.Dennis.Nilsen.Story.1080p.HDTV.x265.AAC.MVGroup.org.mkv torrent
NASCAR Xfinity Series 2020. R26. Food City 300. NBCSN torrent
I Hate Suzie 2020 S01 720p WEB-DL H264 BONE torrent
Love.Island.US.S02E23.WEB.h264-BAE torrent
Bering.Sea.Gold.S12E19.Freezer.Burn.DISC.WEB-DL.AAC2.0.x264-BOOP torrent

ETTV Recommended SD
Neon.Days.2020.HDRip.XviD.AC3-EVO torrent
Spiral.2020.HDRip.XviD.AC3-EVO torrent
Welcome.to.Sudden.Death.2020.HDRip.XviD.AC3-EVO torrent
Loves.Me.Loves.Me.Not.2020.HDRip.XviD.AC3-EVO torrent

ETTV Recommended HD
The Fly And The Fly II - Horror 1986-1989 Eng Subs 1080p [H264-mp4] torrent
Along Came a Spider (2001) [Morgan Freeman] 1080p H264 DolbyD 5.1 ūüíé nickarad torrent
Battleship 2012 BluRay 1080p DTS AC3 x264-3Li torrent
Conan The Barbarian 2011 BluRay 1080p DTS AC3 x264-3Li torrent

ETTV Recommended UHD
The.Babysitter.Killer.Queen.2020.MULTI.2160p.HDR.WEB.EAC3.Hevc-DDR.mkv torrent
The.Devil.All.The.Time.2020.4K.MULTI.2160p.HDR.WEB.EAC3.Hevc-DDR.mkv torrent
Ghost.in.the.Shell.1995.MULTi.2160p.USA.Blu-ray.HDR.Atmos.7.1.HEVC-DDR.mkv torrent
London.Has.Fallen.2016.MULTi.2160p.BLURAY.HDR.DTS-X.7.1.HEVC-DDR.mkv torrent
Enola Holmes.2020.MULTi.2160p.HDR.WEB.DDP.5.1.HEVC-DDR.mkv torrent
The.Woman.2011.MULTi.2160p.Bluray.HDR.DTS-HDMA.5.1.HEVC-DDR.mkv torrent

ETTV Recommended Cam
The.Broken.Hearts.Gallery.2020.HDCAM.x264.LLG torrent
The Secrets We Keep 2020 HDCAM-C1NEM4 torrent

ETTV Recommended Foreign
Bloodstone (1988) 720p BluRay x264 Eng Subs [Dual Audio] [Hindi DD 2.0 - English 2.0] Exclusive By -=!Dr.STAR!=- torrent
Boy Erased 2018 x264 720p Esub BluRay Dual Audio English Hindi GOPI SAHI torrent
Zombie Shark (2015) UNRATED 720p BluRay x264 Eng Subs [Dual Audio] [Hindi DD 2.0 - English 2.0] Exclusive By -=!Dr.STAR!=- torrent
Unbroken Path to Redemption 2018 x264 720p Esub BluRay Dual Audio English Hindi GOPI SAHI torrent
For Greater Glory - The True Story Of Cristiada 2012 x264 720p Esub BluRay Dual Audio English Hindi GOPI SAHI torrent
Kehta Hai Yeh Dil 2020 x264 720p Hindi GOPI SAHI torrent

ETTV Recommended Music
The Police - The Singles YERAYCITO MASTER SERIES XX torrent
Queen II - 1974 - mp3 - 320kbps - G&U torrent
Madonna - Immaculate Collection YERAYCITO MASTER SERIES XX torrent
Bee Gees - One Night Only YERAYCITO MASTER SERIES XX torrent
[indie-rock, prog-rock] (2020) The Pineapple Thief - Versions Of The Truth [FLAC] [DarkAngie] torrent
VA - 100 Greatest 90s Pop Classics (2020) Mp3 320kbps [PMEDIA] ‚≠źÔłŹ torrent


Download Torrent "Red Dawn 2012 x264 720p Esub BluRay Dual Audio English Hindi GOPI SAHI"

IMDB Details
Description:

A group of teenagers look to save their town from an invasion of North Korean soldiers.

Genre:

Action, Drama

Download Torrent (Magnet)
Download Torrent (File)

Seeds: 2
Leechers: 0

Uploaded by:
GOPISAHI


Category:
Movies > Dubs/Dual Audio


Details
Title:Red Dawn 2012 x264 720p Esub BluRay Dual Audio English Hindi GOPI SAHI
Description:

https://www.jattrules.com/



Red Dawn 2012 x264 720p Esub BluRay Dual Audio English Hindi GOPI SAHI


Format                         : Matroska

Format version                 : Version 4

File size                      : 736 MiB

Duration                       : 1 h 33 min

Overall bit rate               : 1 103 kb/s

Movie name                     : Red Dawn 2012 GOPI SAHI

Encoded date                   : UTC 2020-09-14 14:34:16

Writing application            : mkvmerge v46.0.0 ('No Deeper Escape') 32-bit

Writing library                : libebml v1.3.10 + libmatroska v1.5.2


Video

ID                             : 1

Format                         : AVC

Format/Info                    : Advanced Video Codec

Format profile¬†¬†¬†¬†¬†¬†¬†¬†¬†¬†¬†¬†¬†¬†¬†¬† : [email protected]

Format settings                : CABAC / 5 Ref Frames

Format settings, CABAC         : Yes

Format settings, Reference fra : 5 frames

Codec ID                       : V_MPEG4/ISO/AVC

Duration                       : 1 h 33 min

Bit rate                       : 899 kb/s

Width                          : 1 280 pixels

Height                         : 534 pixels

Display aspect ratio           : 2.40:1

Frame rate mode                : Constant

Frame rate                     : 23.976 (24000/1001) FPS

Color space                    : YUV

Chroma subsampling             : 4:2:0

Bit depth                      : 8 bits

Scan type                      : Progressive

Bits/(Pixel*Frame)             : 0.055

Stream size                    : 599 MiB (81%)

Title                          : GOPI SAHI

Writing library                : x264 core 157 r2935 545de2f


Audio #1

ID                             : 2

Format                         : AAC LC

Format/Info                    : Advanced Audio Codec Low Complexity

Codec ID                       : A_AAC-2

Duration                       : 1 h 33 min

Bit rate                       : 96.0 kb/s

Channel(s)                     : 2 channels

Channel layout                 : L R

Sampling rate                  : 48.0 kHz

Frame rate                     : 46.875 FPS (1024 SPF)

Compression mode               : Lossy

Delay relative to video        : -21 ms

Stream size                    : 64.4 MiB (9%)

Title                          : GOPI SAHI

Language                       : Hindi

Default                        : Yes

Forced                         : No


Audio #2

ID                             : 3

Format                         : AAC LC

Format/Info                    : Advanced Audio Codec Low Complexity

Codec ID                       : A_AAC-2

Duration                       : 1 h 33 min

Bit rate                       : 96.0 kb/s

Channel(s)                     : 2 channels

Channel layout                 : L R

Sampling rate                  : 48.0 kHz

Frame rate                     : 46.875 FPS (1024 SPF)

Compression mode               : Lossy

Delay relative to video        : -21 ms

Stream size                    : 64.4 MiB (9%)

Title                          : GOPI SAHI

Language                       : English

Default                        : No

Forced                         : No


Text

ID                             : 4

Format                         : PGS

Muxing mode                    : zlib

Codec ID                       : S_HDMV/PGS

Codec ID/Info                  : Picture based subtitle format used on BDs/HD-DVDs

Duration                       : 1 h 27 min

Bit rate                       : 31.1 kb/s

Count of elements              : 2008

Stream size                    : 19.5 MiB (3%)

Title                          : GOPI SAHI

Language                       : English

Default                        : Yes

Forced                         : Yes


Menu

00:00:00.000                   : : Chapter 01

00:02:54.633                   : : Chapter 02

00:05:01.551                   : : Chapter 03

00:07:54.474                   : : Chapter 04

00:10:24.833                   : : Chapter 05

00:16:08.217                   : : Chapter 06

00:18:55.551                   : : Chapter 07

00:21:32.583                   : : Chapter 08

00:23:02.798                   : : Chapter 09

00:27:06.667                   : : Chapter 10

00:31:16.833                   : : Chapter 11

00:36:29.479                   : : Chapter 12

00:41:27.986                   : : Chapter 13

00:43:40.743                   : : Chapter 14

00:50:37.618                   : : Chapter 15

00:53:56.483                   : : Chapter 16

00:57:04.171                   : : Chapter 17

00:59:07.002                   : : Chapter 18

01:03:11.621                   : : Chapter 19

01:07:17.075                   : : Chapter 20

01:09:55.858                   : : Chapter 21

01:11:51.098                   : : Chapter 22

01:15:40.911                   : : Chapter 23

01:18:20.029                   : : Chapter 24

01:20:55.976                   : : Chapter 25

01:22:55.387                   : : Chapter 26

01:25:58.695                   : : Chapter 27

01:28:26.343                   : : Chapter 28






Category:Movies > Dubs/Dual Audio
Lang:Hindi  Hindi
Total Size:736 MB
Info Hash:733b258da5f50e2912c2108796a182949cec35bc
Added By:GOPISAHI
Date Added:16-09-2020 09:07:00

Files

File List: 
 File Size
Red Dawn 2012 x264 720p Esub BluRay Dual Audio English Hindi GOPI SAHI.mkv736 MB



Comments

There are currently no comments. Be the first one to write something !